  0
SECTION
  2
HEADER
  9
$ACADVER
  1
AC1018
  9
$ACADMAINTVER
 70
   104
  9
$DWGCODEPAGE
  3
ANSI_1252
  9
$CUSTOMPROPERTYTAG
  1
Manager
  9
$CUSTOMPROPERTY
  1

  9
$CUSTOMPROPERTYTAG
  1
Company
  9
$CUSTOMPROPERTY
  1

  9
$CUSTOMPROPERTYTAG
  1
Category
  9
$CUSTOMPROPERTY
  1

  9
$CUSTOMPROPERTYTAG
  1
Part Number
  9
$CUSTOMPROPERTY
  1
0093-129585
  9
$CUSTOMPROPERTYTAG
  1
Description
  9
$CUSTOMPROPERTY
  1
BS 303
  9
$CUSTOMPROPERTYTAG
  1
Project
  9
$CUSTOMPROPERTY
  1

  9
$CUSTOMPROPERTYTAG
  1
Designer
  9
$CUSTOMPROPERTY
  1

  9
$CUSTOMPROPERTYTAG
  1
Engineer
  9
$CUSTOMPROPERTY
  1

  9
$CUSTOMPROPERTYTAG
  1
Authority
  9
$CUSTOMPROPERTY
  1

  9
$CUSTOMPROPERTYTAG
  1
Cost Center
  9
$CUSTOMPROPERTY
  1

  9
$CUSTOMPROPERTYTAG
  1
Vendor
  9
$CUSTOMPROPERTY
  1

  9
$CUSTOMPROPERTYTAG
  1
User Status
  9
$CUSTOMPROPERTY
  1

  9
$CUSTOMPROPERTYTAG
  1
Design Status
  9
$CUSTOMPROPERTY
  1
WorkInProgress
  9
$CUSTOMPROPERTYTAG
  1
Checked by
  9
$CUSTOMPROPERTY
  1

  9
$CUSTOMPROPERTYTAG
  1
Engr Approved by
  9
$CUSTOMPROPERTY
  1

  9
$CUSTOMPROPERTYTAG
  1
Mfg Approved by
  9
$CUSTOMPROPERTY
  1

  9
$CUSTOMPROPERTYTAG
  1
Departement
  9
$CUSTOMPROPERTY
  1
FSI-Marketing
  9
$CUSTOMPROPERTYTAG
  1
Collection
  9
$CUSTOMPROPERTY
  1
BS303
  9
$CUSTOMPROPERTYTAG
  1
Document_Number
  9
$CUSTOMPROPERTY
  1
0093-129585
  9
$CUSTOMPROPERTYTAG
  1
Unit
  9
$CUSTOMPROPERTY
  1
mm
  9
$CUSTOMPROPERTYTAG
  1
Scale
  9
$CUSTOMPROPERTY
  1
NTS
  9
$CUSTOMPROPERTYTAG
  1
Tolerance
  9
$CUSTOMPROPERTY
  1
ISO 2768 m
  9
$CUSTOMPROPERTYTAG
  1
Drawn_By
  9
$CUSTOMPROPERTY
  1
SS136
  9
$CUSTOMPROPERTYTAG
  1
Drawn_Date
  9
$CUSTOMPROPERTY
  1
10/13/2010
  9
$CUSTOMPROPERTYTAG
  1
Modified_By
  9
$CUSTOMPROPERTY
  1

  9
$CUSTOMPROPERTYTAG
  1
Modified_Date
  9
$CUSTOMPROPERTY
  1
02/24/2010
  9
$CUSTOMPROPERTYTAG
  1
Revision_Index_1
  9
$CUSTOMPROPERTY
  1

  9
$CUSTOMPROPERTYTAG
  1
Revision_By_1
  9
$CUSTOMPROPERTY
  1

  9
$CUSTOMPROPERTYTAG
  1
Revision_Memo_1
  9
$CUSTOMPROPERTY
  1

  9
$CUSTOMPROPERTYTAG
  1
Revision_Titel_1
  9
$CUSTOMPROPERTY
  1

  9
$CUSTOMPROPERTYTAG
  1
EAN
  9
$CUSTOMPROPERTY
  1
7612979000351
  9
$CUSTOMPROPERTYTAG
  1
FUN
  9
$CUSTOMPROPERTY
  1

  9
$CUSTOMPROPERTYTAG
  1
Part_number
  9
$CUSTOMPROPERTY
  1
BS303
  9
$CUSTOMPROPERTYTAG
  1
Title
  9
$CUSTOMPROPERTY
  1
BS 303
  9
$CUSTOMPROPERTYTAG
  1
Auxiliary_Remark1
  9
$CUSTOMPROPERTY
  1
cleaner sink CNS
  9
$CUSTOMPROPERTYTAG
  1
Material
  9
$CUSTOMPROPERTY
  1
ST ST 304
  9
$CUSTOMPROPERTYTAG
  1
Weight
  9
$CUSTOMPROPERTY
  1
3.4859 kg
  9
$CUSTOMPROPERTYTAG
  1
Length
  9
$CUSTOMPROPERTY
  1
576.061
  9
$CUSTOMPROPERTYTAG
  1
Width
  9
$CUSTOMPROPERTY
  1
476.996
  9
$CUSTOMPROPERTYTAG
  1
Shear_Size
  9
$CUSTOMPROPERTY
  1
576.061 X 476.996
  9
$CUSTOMPROPERTYTAG
  1
Thickness
  9
$CUSTOMPROPERTY
  1
0.950
  9
$CUSTOMPROPERTYTAG
  1
Revision_Date_1
  9
$CUSTOMPROPERTY
  1
02/24/2010
  9
$CUSTOMPROPERTYTAG
  1
Checked_By
  9
$CUSTOMPROPERTY
  1

  9
$INSBASE
 10
0.0
 20
0.0
 30
0.0
  9
$EXTMIN
 10
0.0
 20
0.0
 30
0.0
  9
$EXTMAX
 10
1680.0
 20
2376.0
 30
0.0
  9
$LIMMIN
 10
0.0
 20
0.0
  9
$LIMMAX
 10
1680.0
 20
2376.0
  9
$ORTHOMODE
 70
     0
  9
$REGENMODE
 70
     1
  9
$FILLMODE
 70
     1
  9
$QTEXTMODE
 70
     0
  9
$MIRRTEXT
 70
     0
  9
$LTSCALE
 40
8.0
  9
$ATTMODE
 70
     1
  9
$TEXTSIZE
 40
0.2
  9
$TRACEWID
 40
0.05
  9
$TEXTSTYLE
  7
Standard
  9
$CLAYER
  8
0
  9
$CELTYPE
  6
ByLayer
  9
$CECOLOR
 62
   256
  9
$CELTSCALE
 40
1.0
  9
$DISPSILH
 70
     0
  9
$DIMSCALE
 40
1.0
  9
$DIMASZ
 40
1.799999999999999
  9
$DIMEXO
 40
0.0625
  9
$DIMDLI
 40
0.38
  9
$DIMRND
 40
0.0
  9
$DIMDLE
 40
0.0
  9
$DIMEXE
 40
0.18
  9
$DIMTP
 40
0.0
  9
$DIMTM
 40
0.0
  9
$DIMTXT
 40
0.3048000037670135
  9
$DIMCEN
 40
0.09
  9
$DIMTSZ
 40
0.0
  9
$DIMTOL
 70
     0
  9
$DIMLIM
 70
     0
  9
$DIMTIH
 70
     1
  9
$DIMTOH
 70
     1
  9
$DIMSE1
 70
     0
  9
$DIMSE2
 70
     0
  9
$DIMTAD
 70
     0
  9
$DIMZIN
 70
     0
  9
$DIMBLK
  1

  9
$DIMASO
 70
     1
  9
$DIMSHO
 70
     1
  9
$DIMPOST
  1

  9
$DIMAPOST
  1

  9
$DIMALT
 70
     0
  9
$DIMALTD
 70
     2
  9
$DIMALTF
 40
25.4
  9
$DIMLFAC
 40
1.0
  9
$DIMTOFL
 70
     0
  9
$DIMTVP
 40
0.0
  9
$DIMTIX
 70
     0
  9
$DIMSOXD
 70
     0
  9
$DIMSAH
 70
     0
  9
$DIMBLK1
  1

  9
$DIMBLK2
  1

  9
$DIMSTYLE
  2
Standard
  9
$DIMCLRD
 70
     0
  9
$DIMCLRE
 70
     0
  9
$DIMCLRT
 70
     0
  9
$DIMTFAC
 40
1.0
  9
$DIMGAP
 40
0.09
  9
$DIMJUST
 70
     0
  9
$DIMSD1
 70
     0
  9
$DIMSD2
 70
     0
  9
$DIMTOLJ
 70
     1
  9
$DIMTZIN
 70
     0
  9
$DIMALTZ
 70
     0
  9
$DIMALTTZ
 70
     0
  9
$DIMUPT
 70
     0
  9
$DIMDEC
 70
     4
  9
$DIMTDEC
 70
     4
  9
$DIMALTU
 70
     2
  9
$DIMALTTD
 70
     2
  9
$DIMTXSTY
  7
Standard
  9
$DIMAUNIT
 70
     0
  9
$DIMADEC
 70
     0
  9
$DIMALTRND
 40
0.0
  9
$DIMAZIN
 70
     0
  9
$DIMDSEP
 70
    46
  9
$DIMATFIT
 70
     3
  9
$DIMFRAC
 70
     0
  9
$DIMLDRBLK
  1

  9
$DIMLUNIT
 70
     2
  9
$DIMLWD
 70
    -2
  9
$DIMLWE
 70
    -2
  9
$DIMTMOVE
 70
     0
  9
$LUNITS
 70
     2
  9
$LUPREC
 70
     4
  9
$SKETCHINC
 40
0.1
  9
$FILLETRAD
 40
0.0
  9
$AUNITS
 70
     0
  9
$AUPREC
 70
     0
  9
$MENU
  1
.
  9
$ELEVATION
 40
0.0
  9
$PELEVATION
 40
0.0
  9
$THICKNESS
 40
0.0
  9
$LIMCHECK
 70
     0
  9
$CHAMFERA
 40
0.0
  9
$CHAMFERB
 40
0.0
  9
$CHAMFERC
 40
0.0
  9
$CHAMFERD
 40
0.0
  9
$SKPOLY
 70
     0
  9
$TDCREATE
 40
2455483.473073484
  9
$TDUCREATE
 40
2455483.431406817
  9
$TDUPDATE
 40
2455483.473073484
  9
$TDUUPDATE
 40
2455483.431406817
  9
$TDINDWG
 40
0.0000238657
  9
$TDUSRTIMER
 40
0.0000238657
  9
$USRTIMER
 70
     1
  9
$ANGBASE
 50
0.0
  9
$ANGDIR
 70
     0
  9
$PDMODE
 70
     0
  9
$PDSIZE
 40
0.0
  9
$PLINEWID
 40
0.0
  9
$SPLFRAME
 70
     0
  9
$SPLINETYPE
 70
     6
  9
$SPLINESEGS
 70
     8
  9
$HANDSEED
  5
1013
  9
$SURFTAB1
 70
     6
  9
$SURFTAB2
 70
     6
  9
$SURFTYPE
 70
     6
  9
$SURFU
 70
     6
  9
$SURFV
 70
     6
  9
$UCSBASE
  2

  9
$UCSNAME
  2

  9
$UCSORG
 10
0.0
 20
0.0
 30
0.0
  9
$UCSXDIR
 10
1.0
 20
0.0
 30
0.0
  9
$UCSYDIR
 10
0.0
 20
1.0
 30
0.0
  9
$UCSORTHOREF
  2

  9
$UCSORTHOVIEW
 70
     0
  9
$UCSORGTOP
 10
0.0
 20
0.0
 30
0.0
  9
$UCSORGBOTTOM
 10
0.0
 20
0.0
 30
0.0
  9
$UCSORGLEFT
 10
0.0
 20
0.0
 30
0.0
  9
$UCSORGRIGHT
 10
0.0
 20
0.0
 30
0.0
  9
$UCSORGFRONT
 10
0.0
 20
0.0
 30
0.0
  9
$UCSORGBACK
 10
0.0
 20
0.0
 30
0.0
  9
$PUCSBASE
  2

  9
$PUCSNAME
  2

  9
$PUCSORG
 10
0.0
 20
0.0
 30
0.0
  9
$PUCSXDIR
 10
1.0
 20
0.0
 30
0.0
  9
$PUCSYDIR
 10
0.0
 20
1.0
 30
0.0
  9
$PUCSORTHOREF
  2

  9
$PUCSORTHOVIEW
 70
     0
  9
$PUCSORGTOP
 10
0.0
 20
0.0
 30
0.0
  9
$PUCSORGBOTTOM
 10
0.0
 20
0.0
 30
0.0
  9
$PUCSORGLEFT
 10
0.0
 20
0.0
 30
0.0
  9
$PUCSORGRIGHT
 10
0.0
 20
0.0
 30
0.0
  9
$PUCSORGFRONT
 10
0.0
 20
0.0
 30
0.0
  9
$PUCSORGBACK
 10
0.0
 20
0.0
 30
0.0
  9
$USERI1
 70
     0
  9
$USERI2
 70
     0
  9
$USERI3
 70
     0
  9
$USERI4
 70
     0
  9
$USERI5
 70
     0
  9
$USERR1
 40
0.0
  9
$USERR2
 40
0.0
  9
$USERR3
 40
0.0
  9
$USERR4
 40
0.0
  9
$USERR5
 40
0.0
  9
$WORLDVIEW
 70
     1
  9
$SHADEDGE
 70
     3
  9
$SHADEDIF
 70
    70
  9
$TILEMODE
 70
     1
  9
$MAXACTVP
 70
    64
  9
$PINSBASE
 10
0.0
 20
0.0
 30
0.0
  9
$PLIMCHECK
 70
     0
  9
$PEXTMIN
 10
0.0
 20
0.0
 30
0.0
  9
$PEXTMAX
 10
1680.0
 20
2376.0
 30
0.0
  9
$PLIMMIN
 10
0.0
 20
0.0
  9
$PLIMMAX
 10
1680.0
 20
2376.0
  9
$UNITMODE
 70
     0
  9
$VISRETAIN
 70
     1
  9
$PLINEGEN
 70
     0
  9
$PSLTSCALE
 70
     1
  9
$TREEDEPTH
 70
  3020
  9
$CMLSTYLE
  2
Standard
  9
$CMLJUST
 70
     0
  9
$CMLSCALE
 40
1.0
  9
$PROXYGRAPHICS
 70
     1
  9
$MEASUREMENT
 70
     1
  9
$CELWEIGHT
370
    -1
  9
$ENDCAPS
280
     0
  9
$JOINSTYLE
280
     0
  9
$LWDISPLAY
290
     0
  9
$INSUNITS
 70
     4
  9
$HYPERLINKBASE
  1

  9
$STYLESHEET
  1

  9
$XEDIT
290
     1
  9
$CEPSNTYPE
380
     0
  9
$PSTYLEMODE
290
     1
  9
$FINGERPRINTGUID
  2
{1D7BF8DD-2F1A-401E-99E2-232789C44EB1}
  9
$VERSIONGUID
  2
{C4FE58CD-AF69-46FA-9485-6A52803A7401}
  9
$EXTNAMES
290
     1
  9
$PSVPSCALE
 40
0.0
  9
$OLESTARTUP
290
     0
  9
$SORTENTS
280
   127
  9
$INDEXCTL
280
     0
  9
$HIDETEXT
280
     1
  9
$XCLIPFRAME
290
     0
  9
$HALOGAP
280
     0
  9
$OBSCOLOR
 70
   257
  9
$OBSLTYPE
280
     0
  9
$INTERSECTIONDISPLAY
280
     0
  9
$INTERSECTIONCOLOR
 70
   257
  9
$DIMASSOC
280
     1
  9
$PROJECTNAME
  1

  0
ENDSEC
  0
SECTION
  2
CLASSES
  0
CLASS
  1
ACDBDICTIONARYWDFLT
  2
AcDbDictionaryWithDefault
  3
ObjectDBX Classes
 90
        0
 91
        1
280
     0
281
     0
  0
CLASS
  1
MATERIAL
  2
AcDbMaterial
  3
ObjectDBX Classes
 90
     1153
 91
        3
280
     0
281
     0
  0
CLASS
  1
VISUALSTYLE
  2
AcDbVisualStyle
  3
ObjectDBX Classes
 90
     4095
 91
       19
280
     0
281
     0
  0
CLASS
  1
SCALE
  2
AcDbScale
  3
ObjectDBX Classes
 90
     1153
 91
       33
280
     0
281
     0
  0
CLASS
  1
TABLESTYLE
  2
AcDbTableStyle
  3
ObjectDBX Classes
 90
     4095
 91
        1
280
     0
281
     0
  0
CLASS
  1
MLEADERSTYLE
  2
AcDbMLeaderStyle
  3
ACDB_MLEADERSTYLE_CLASS
 90
     4095
 91
        1
280
     0
281
     0
  0
CLASS
  1
DICTIONARYVAR
  2
AcDbDictionaryVar
  3
ObjectDBX Classes
 90
        0
 91
        8
280
     0
281
     0
  0
CLASS
  1
CELLSTYLEMAP
  2
AcDbCellStyleMap
  3
ObjectDBX Classes
 90
     1152
 91
        1
280
     0
281
     0
  0
ENDSEC
  0
SECTION
  2
TABLES
  0
TABLE
  2
VPORT
  5
8
330
0
100
AcDbSymbolTable
 70
     1
  0
VPORT
  5
62
330
8
100
AcDbSymbolTableRecord
100
AcDbViewportTableRecord
  2
*Active
 70
     0
 10
0.0
 20
0.0
 11
1.0
 21
1.0
 12
840.0
 22
1188.0
 13
0.0
 23
0.0
 14
1.0
 24
1.0
 15
0.0
 25
0.0
 16
0.0
 26
0.0
 36
1.0
 17
0.0
 27
0.0
 37
0.0
 40
2376.0
 41
0.7070707070707071
 42
50.0
 43
0.0
 44
0.0
 50
0.0
 51
0.0
 71
     0
 72
   100
 73
     1
 74
     1
 75
     0
 76
     0
 77
     0
 78
     0
281
     0
 65
     1
110
0.0
120
0.0
130
0.0
111
1.0
121
0.0
131
0.0
112
0.0
122
1.0
132
0.0
 79
     0
146
0.0
  0
ENDTAB
  0
TABLE
  2
LTYPE
  5
5
330
0
100
AcDbSymbolTable
 70
     1
  0
LTYPE
  5
66
330
5
100
AcDbSymbolTableRecord
100
AcDbLinetypeTableRecord
  2
ByBlock
 70
     0
  3

 72
    65
 73
     0
 40
0.0
  0
LTYPE
  5
67
330
5
100
AcDbSymbolTableRecord
100
AcDbLinetypeTableRecord
  2
ByLayer
 70
     0
  3

 72
    65
 73
     0
 40
0.0
  0
LTYPE
  5
68
330
5
100
AcDbSymbolTableRecord
100
AcDbLinetypeTableRecord
  2
Continuous
 70
     0
  3
Solid line
 72
    65
 73
     0
 40
0.0
  0
ENDTAB
  0
TABLE
  2
LAYER
  5
2
330
0
100
AcDbSymbolTable
 70
    83
  0
LAYER
  5
5F
330
2
100
AcDbSymbolTableRecord
100
AcDbLayerTableRecord
  2
0
 70
     0
 62
     7
  6
Continuous
370
    -3
390
F
  0
LAYER
  5
8F
330
2
100
AcDbSymbolTableRecord
100
AcDbLayerTableRecord
  2
Bemaßungen(DIN)
 70
     0
 62
     7
  6
Continuous
370
    25
390
F
  0
LAYER
  5
95
330
2
100
AcDbSymbolTableRecord
100
AcDbLayerTableRecord
  2
Centerline(ISO)
 70
     0
 62
     7
  6
Continuous
370
    25
390
F
  0
LAYER
  5
9B
330
2
100
AcDbSymbolTableRecord
100
AcDbLayerTableRecord
  2
Hatch
 70
     0
 62
     7
  6
Continuous
370
     9
390
F
  0
LAYER
  5
A2
330
2
100
AcDbSymbolTableRecord
100
AcDbLayerTableRecord
  2
MaCenterline
 70
     0
 62
     7
  6
Continuous
370
    35
390
F
  0
LAYER
  5
A5
330
2
100
AcDbSymbolTableRecord
100
AcDbLayerTableRecord
  2
MaSichtkante dünnFliese
 70
     0
 62
     7
  6
Continuous
370
    30
390
F
  0
LAYER
  5
A6
330
2
100
AcDbSymbolTableRecord
100
AcDbLayerTableRecord
  2
MaVisibleEdge
 70
     0
 62
     7
  6
Continuous
370
    50
390
F
  0
LAYER
  5
A7
330
2
100
AcDbSymbolTableRecord
100
AcDbLayerTableRecord
  2
MaVisibleEdge thinFlag
 70
     0
 62
     7
  6
Continuous
370
    30
390
F
  0
LAYER
  5
AE
330
2
100
AcDbSymbolTableRecord
100
AcDbLayerTableRecord
  2
Phantom Lines(ISO)
 70
     0
 62
     7
  6
Continuous
370
    70
390
F
  0
LAYER
  5
B6
330
2
100
AcDbSymbolTableRecord
100
AcDbLayerTableRecord
  2
Sketch Geometry(DIN)
 70
     0
 62
     7
  6
Continuous
370
    50
390
F
  0
LAYER
  5
B7
330
2
100
AcDbSymbolTableRecord
100
AcDbLayerTableRecord
  2
Sketch Geometry(ISO)
 70
     0
 62
     7
  6
Continuous
370
    50
390
F
  0
LAYER
  5
C1
330
2
100
AcDbSymbolTableRecord
100
AcDbLayerTableRecord
  2
Symbols(ISO)
 70
     0
 62
     7
  6
Continuous
370
    25
390
F
  0
LAYER
  5
C9
330
2
100
AcDbSymbolTableRecord
100
AcDbLayerTableRecord
  2
Visible Edges(DIN)
 70
     0
 62
     7
  6
Continuous
370
    50
390
F
  0
LAYER
  5
2AC
330
2
100
AcDbSymbolTableRecord
100
AcDbLayerTableRecord
  2
Defpoints
 70
     0
 62
     7
  6
Continuous
290
     0
370
    -3
390
F
  0
ENDTAB
  0
TABLE
  2
STYLE
  5
3
330
0
100
AcDbSymbolTable
 70
    22
  0
STYLE
  5
60
330
3
100
AcDbSymbolTableRecord
100
AcDbTextStyleTableRecord
  2
Standard
 70
     0
 40
0.0
 41
1.0
 50
0.0
 71
     0
 42
0.2
  3
monotxt.shx
  4

  0
STYLE
  5
65
330
3
100
AcDbSymbolTableRecord
100
AcDbTextStyleTableRecord
  2
Annotative
 70
     0
 40
0.0
 41
1.0
 50
0.0
 71
     0
 42
0.2
  3
txt
  4

1001
AcadAnnotative
1000
AnnotativeData
1002
{
1070
     1
1070
     1
1002
}
  0
STYLE
  5
D0
330
3
100
AcDbSymbolTableRecord
100
AcDbTextStyleTableRecord
  2
Current-DIN
 70
     0
 40
0.0
 41
1.0
 50
0.0
 71
     0
 42
0.2
  3
TAHOMA.TTF
  4

1001
ACAD
1000
Tahoma
1071
      256
  0
STYLE
  5
D1
330
3
100
AcDbSymbolTableRecord
100
AcDbTextStyleTableRecord
  2
Parts-List_2.0mm
 70
     0
 40
0.0
 41
0.899999976158142
 50
0.0
 71
     0
 42
0.2
  3
ARIAL.TTF
  4

1001
ACAD
1000
Arial
1071
      256
  0
STYLE
  5
D2
330
3
100
AcDbSymbolTableRecord
100
AcDbTextStyleTableRecord
  2
Parts-List_2.0mmByLayer
 70
     0
 40
0.0
 41
0.899999976158142
 50
0.0
 71
     0
 42
0.2
  3
ARIAL.TTF
  4

1001
ACAD
1000
Arial
1071
      256
  0
STYLE
  5
D3
330
3
100
AcDbSymbolTableRecord
100
AcDbTextStyleTableRecord
  2
Text__1.3mm
 70
     0
 40
0.0
 41
0.899999976158142
 50
0.0
 71
     0
 42
0.2
  3
ARIAL.TTF
  4

1001
ACAD
1000
Arial
1071
      256
  0
STYLE
  5
D4
330
3
100
AcDbSymbolTableRecord
100
AcDbTextStyleTableRecord
  2
Text__1.5mm
 70
     0
 40
0.0
 41
0.899999976158142
 50
0.0
 71
     0
 42
0.2
  3
ARIAL.TTF
  4

1001
ACAD
1000
Arial
1071
      256
  0
STYLE
  5
D5
330
3
100
AcDbSymbolTableRecord
100
AcDbTextStyleTableRecord
  2
Text__3.5mm
 70
     0
 40
0.0
 41
0.899999976158142
 50
0.0
 71
     0
 42
0.2
  3
ARIAL.TTF
  4

1001
ACAD
1000
Arial
1071
      256
  0
STYLE
  5
D6
330
3
100
AcDbSymbolTableRecord
100
AcDbTextStyleTableRecord
  2
Text__3.5mmBigText
 70
     0
 40
0.0
 41
0.899999976158142
 50
0.0
 71
     0
 42
0.2
  3
ARIAL.TTF
  4

1001
ACAD
1000
Arial
1071
      256
  0
STYLE
  5
D7
330
3
100
AcDbSymbolTableRecord
100
AcDbTextStyleTableRecord
  2
Text__3.5mmByLayer
 70
     0
 40
0.0
 41
0.899999976158142
 50
0.0
 71
     0
 42
0.2
  3
ARIAL.TTF
  4

1001
ACAD
1000
Arial
1071
      256
  0
STYLE
  5
D8
330
3
100
AcDbSymbolTableRecord
100
AcDbTextStyleTableRecord
  2
Text__4.0mm
 70
     0
 40
0.0
 41
0.899999976158142
 50
0.0
 71
     0
 42
0.2
  3
ARIAL.TTF
  4

1001
ACAD
1000
Arial
1071
      256
  0
STYLE
  5
D9
330
3
100
AcDbSymbolTableRecord
100
AcDbTextStyleTableRecord
  2
Text__5.0mm
 70
     0
 40
0.0
 41
0.899999976158142
 50
0.0
 71
     0
 42
0.2
  3
ARIAL.TTF
  4

1001
ACAD
1000
Arial
1071
      256
  0
STYLE
  5
DA
330
3
100
AcDbSymbolTableRecord
100
AcDbTextStyleTableRecord
  2
Text__5.0mmByLayer
 70
     0
 40
0.0
 41
0.899999976158142
 50
0.0
 71
     0
 42
0.2
  3
ARIAL.TTF
  4

1001
ACAD
1000
Arial
1071
      256
  0
STYLE
  5
DB
330
3
100
AcDbSymbolTableRecord
100
AcDbTextStyleTableRecord
  2
Text_2.5mm
 70
     0
 40
0.0
 41
0.899999976158142
 50
0.0
 71
     0
 42
0.2
  3
ARIAL.TTF
  4

1001
ACAD
1000
Arial
1071
      256
  0
STYLE
  5
DC
330
3
100
AcDbSymbolTableRecord
100
AcDbTextStyleTableRecord
  2
Text_3.5mm
 70
     0
 40
0.0
 41
0.899999976158142
 50
0.0
 71
     0
 42
0.2
  3
ARIAL.TTF
  4

1001
ACAD
1000
Arial
1071
      256
  0
STYLE
  5
DD
330
3
100
AcDbSymbolTableRecord
100
AcDbTextStyleTableRecord
  2
Text_5.0mm
 70
     0
 40
0.0
 41
0.899999976158142
 50
0.0
 71
     0
 42
0.2
  3
ARIAL.TTF
  4

1001
ACAD
1000
Arial
1071
      256
  0
STYLE
  5
DE
330
3
100
AcDbSymbolTableRecord
100
AcDbTextStyleTableRecord
  2
Text_5.0mmByLayer
 70
     0
 40
0.0
 41
0.899999976158142
 50
0.0
 71
     0
 42
0.2
  3
ARIAL.TTF
  4

1001
ACAD
1000
Arial
1071
      256
  0
STYLE
  5
103
330
3
100
AcDbSymbolTableRecord
100
AcDbTextStyleTableRecord
  2
Text Style49
 70
     0
 40
0.0
 41
0.899999976158142
 50
0.0
 71
     0
 42
0.2
  3
ARIAL.TTF
  4

1001
ACAD
1000
Arial
1071
      256
  0
STYLE
  5
242
330
3
100
AcDbSymbolTableRecord
100
AcDbTextStyleTableRecord
  2
Text Style20
 70
     0
 40
0.0
 41
1.0
 50
0.0
 71
     0
 42
0.2
  3
ARIAL.TTF
  4

1001
ACAD
1000
Arial
1071
      256
  0
STYLE
  5
244
330
3
100
AcDbSymbolTableRecord
100
AcDbTextStyleTableRecord
  2
Text Style9
 70
     0
 40
0.0
 41
1.0
 50
0.0
 71
     0
 42
0.2
  3
ARIAL.TTF
  4

1001
ACAD
1000
Arial
1071
      256
  0
STYLE
  5
247
330
3
100
AcDbSymbolTableRecord
100
AcDbTextStyleTableRecord
  2
Text Style38
 70
     0
 40
0.0
 41
1.0
 50
0.0
 71
     0
 42
0.2
  3
ARIAL.TTF
  4

1001
ACAD
1000
Arial
1071
      256
  0
STYLE
  5
24A
330
3
100
AcDbSymbolTableRecord
100
AcDbTextStyleTableRecord
  2
Text Style40
 70
     0
 40
0.0
 41
1.0
 50
0.0
 71
     0
 42
0.2
  3
ARIAL.TTF
  4

1001
ACAD
1000
Arial
1071
      256
  0
ENDTAB
  0
TABLE
  2
VIEW
  5
6
330
0
100
AcDbSymbolTable
 70
     0
  0
ENDTAB
  0
TABLE
  2
UCS
  5
7
330
0
100
AcDbSymbolTable
 70
     0
  0
ENDTAB
  0
TABLE
  2
APPID
  5
9
330
0
100
AcDbSymbolTable
 70
     5
  0
APPID
  5
61
330
9
100
AcDbSymbolTableRecord
100
AcDbRegAppTableRecord
  2
ACAD
 70
     0
  0
APPID
  5
69
330
9
100
AcDbSymbolTableRecord
100
AcDbRegAppTableRecord
  2
AcadAnnotative
 70
     0
  0
APPID
  5
107
330
9
100
AcDbSymbolTableRecord
100
AcDbRegAppTableRecord
  2
AcadAnnoPO
 70
     0
  0
APPID
  5
707
330
9
100
AcDbSymbolTableRecord
100
AcDbRegAppTableRecord
  2
ACAD_DSTYLE_DIMRADIAL_EXTENSION
 70
     0
  0
APPID
  5
1010
330
9
100
AcDbSymbolTableRecord
100
AcDbRegAppTableRecord
  2
ACAD_MLEADERVER
 70
     0
  0
ENDTAB
  0
TABLE
  2
DIMSTYLE
  5
A
330
0
100
AcDbSymbolTable
 70
    17
100
AcDbDimStyleTable
 71
     2
340
E3
340
63
  0
DIMSTYLE
105
63
330
A
100
AcDbSymbolTableRecord
100
AcDbDimStyleTableRecord
  2
Standard
 70
     0
340
60
  0
DIMSTYLE
105
64
330
A
100
AcDbSymbolTableRecord
100
AcDbDimStyleTableRecord
  2
Annotative
 70
     0
340
60
1001
AcadAnnotative
1000
AnnotativeData
1002
{
1070
     1
1070
     1
1002
}
  0
DIMSTYLE
105
DF
330
A
100
AcDbSymbolTableRecord
100
AcDbDimStyleTableRecord
  2
KS-STANDARD
 70
     0
 40
8.0
 41
2.5
 42
0.0
 43
12.0
 44
3.174999999999999
 45
0.00000001
 46
10.0
 73
     0
 74
     0
 77
     1
 78
     8
 79
     2
140
3.5
143
0.03937
146
0.7142857142857144
147
0.8000000000000001
171
     3
172
     1
176
     7
177
     7
178
     7
271
     1
274
     3
278
    44
284
     8
286
     8
340
DC
371
    25
372
    25
  0
DIMSTYLE
105
E0
330
A
100
AcDbSymbolTableRecord
100
AcDbDimStyleTableRecord
  2
KS-STANDARD$7
 70
     0
 40
8.0
 41
2.5
 42
0.0
 43
12.0
 44
3.174999999999999
 45
0.00000001
 46
10.0
 73
     0
 74
     0
 77
     1
 78
     8
 79
     2
140
3.5
143
0.03937
146
0.7142857142857144
147
0.8000000000000001
171
     3
172
     1
176
     7
177
     7
178
     7
271
     1
274
     3
278
    44
284
     8
286
     8
340
DC
371
    25
372
    25
  0
DIMSTYLE
105
E1
330
A
100
AcDbSymbolTableRecord
100
AcDbDimStyleTableRecord
  2
KS-STANDARDBigText
 70
     0
 40
8.0
 41
5.0
 42
0.0
 43
12.0
 44
3.174999999999999
 45
0.00000001
 46
10.0
 73
     0
 74
     0
 77
     1
 78
     8
 79
     2
140
5.25
143
0.03937
146
0.4761904761904762
147
0.8000000000000001
171
     3
172
     1
176
     7
177
     7
178
     7
271
     1
274
     3
278
    44
284
     8
286
     8
340
D6
371
    25
372
    25
  0
DIMSTYLE
105
E2
330
A
100
AcDbSymbolTableRecord
100
AcDbDimStyleTableRecord
  2
KS-STANDARDBigText$7
 70
     0
 40
8.0
 41
5.0
 42
0.0
 43
12.0
 44
3.174999999999999
 45
0.00000001
 46
10.0
 73
     0
 74
     0
 77
     1
 78
     8
 79
     2
140
5.25
143
0.03937
146
0.4761904761904762
147
0.8000000000000001
171
     3
172
     1
176
     7
177
     7
178
     7
271
     1
274
     3
278
    44
284
     8
286
     8
340
D6
371
    25
372
    25
  0
DIMSTYLE
105
E3
102
{ACAD_REACTORS
330
2AB
330
396
330
480
330
57E
330
66E
330
772
330
870
330
96E
330
A5E
330
B94
330
C84
330
D6E
330
E73
102
}
330
A
100
AcDbSymbolTableRecord
100
AcDbDimStyleTableRecord
  2
MarketingDrawing
 70
     0
 40
8.0
 41
4.0
 42
2.0
 43
12.0
 44
2.0
 45
0.00000001
 46
10.0
 78
     8
 79
     2
140
4.0
143
0.03937
146
0.625
147
1.0
171
     3
176
     7
177
     7
178
     7
271
     0
274
     3
278
    44
284
     8
286
     8
340
D8
371
    25
372
    25
  0
DIMSTYLE
105
E4
330
A
100
AcDbSymbolTableRecord
100
AcDbDimStyleTableRecord
  2
MarketingDrawing$7
 70
     0
 40
8.0
 41
5.0
 42
2.0
 43
12.0
 44
2.0
 45
0.00000001
 46
10.0
 78
     8
 79
     2
140
4.0
143
0.03937
146
0.625
147
1.0
171
     3
176
     7
177
     7
178
     7
271
     0
274
     3
278
    44
284
     8
286
     8
340
D8
371
    25
372
    25
  0
DIMSTYLE
105
EF
330
A
100
AcDbSymbolTableRecord
100
AcDbDimStyleTableRecord
  2
Leader-Datum(DIN)
 70
     0
 40
8.0
 41
2.5
340
60
342
F0
  0
DIMSTYLE
105
F7
330
A
100
AcDbSymbolTableRecord
100
AcDbDimStyleTableRecord
  2
Leader-Datum(ISO)
 70
     0
 40
8.0
 41
2.5
340
60
342
F0
  0
DIMSTYLE
105
F8
330
A
100
AcDbSymbolTableRecord
100
AcDbDimStyleTableRecord
  2
Leader-Dot(DIN)
 70
     0
 40
8.0
 41
2.5
340
60
342
F0
  0
DIMSTYLE
105
F9
330
A
100
AcDbSymbolTableRecord
100
AcDbDimStyleTableRecord
  2
Leader-Dot(ISO)
 70
     0
 40
8.0
 41
2.5
340
60
342
F0
  0
DIMSTYLE
105
FA
330
A
100
AcDbSymbolTableRecord
100
AcDbDimStyleTableRecord
  2
Leader-Large(DIN)
 70
     0
 40
8.0
 41
5.0
340
60
342
F0
  0
DIMSTYLE
105
FB
330
A
100
AcDbSymbolTableRecord
100
AcDbDimStyleTableRecord
  2
Leader-OriginIndicator(DIN)
 70
     0
 40
8.0
 41
2.5
340
60
342
F0
  0
DIMSTYLE
105
FC
330
A
100
AcDbSymbolTableRecord
100
AcDbDimStyleTableRecord
  2
Leader-OriginIndicator(ISO)
 70
     0
 40
8.0
 41
2.5
340
60
342
F0
  0
DIMSTYLE
105
FD
330
A
100
AcDbSymbolTableRecord
100
AcDbDimStyleTableRecord
  2
Leader(DIN)
 70
     0
 40
8.0
 41
2.5
340
60
342
F0
  0
DIMSTYLE
105
FE
330
A
100
AcDbSymbolTableRecord
100
AcDbDimStyleTableRecord
  2
Leader(ISO)
 70
     0
 40
8.0
 41
2.5
340
60
342
F0
  0
ENDTAB
  0
TABLE
  2
BLOCK_RECORD
  5
1
330
0
100
AcDbSymbolTable
 70
    24
  0
BLOCK_RECORD
  5
77
330
1
100
AcDbSymbolTableRecord
100
AcDbBlockTableRecord
  2
*Model_Space
340
7A
  0
BLOCK_RECORD
  5
73
330
1
100
AcDbSymbolTableRecord
100
AcDbBlockTableRecord
  2
*Paper_Space
340
76
  0
BLOCK_RECORD
  5
7B
330
1
100
AcDbSymbolTableRecord
100
AcDbBlockTableRecord
  2
*Paper_Space0
340
7E
  0
BLOCK_RECORD
  5
E5
330
1
100
AcDbSymbolTableRecord
100
AcDbBlockTableRecord
  2
DatumFilled45
340
0
  0
BLOCK_RECORD
  5
F0
330
1
100
AcDbSymbolTableRecord
100
AcDbBlockTableRecord
  2
_Closed
340
0
  0
BLOCK_RECORD
  5
FF
330
1
100
AcDbSymbolTableRecord
100
AcDbBlockTableRecord
  2
Index
340
0
  0
BLOCK_RECORD
  5
108
330
1
100
AcDbSymbolTableRecord
100
AcDbBlockTableRecord
  2
AIR
340
0
  0
BLOCK_RECORD
  5
115
330
1
100
AcDbSymbolTableRecord
100
AcDbBlockTableRecord
  2
Zertifizierungszeichnung
340
0
  0
BLOCK_RECORD
  5
11D
330
1
100
AcDbSymbolTableRecord
100
AcDbBlockTableRecord
  2
Pfeil 1_1
340
0
  0
BLOCK_RECORD
  5
12F
330
1
100
AcDbSymbolTableRecord
100
AcDbBlockTableRecord
  2
TWK 1_1
340
0
  0
BLOCK_RECORD
  5
13D
330
1
100
AcDbSymbolTableRecord
100
AcDbBlockTableRecord
  2
TWW 1_1
340
0
  0
BLOCK_RECORD
  5
14D
330
1
100
AcDbSymbolTableRecord
100
AcDbBlockTableRecord
  2
Title Blocks WS-Marketing-FUN
340
0
102
{BLKREFS
331
259
102
}
  0
BLOCK_RECORD
  5
26E
330
1
100
AcDbSymbolTableRecord
100
AcDbBlockTableRecord
  2
Borders Verkauf Border_85x80
340
0
102
{BLKREFS
331
279
102
}
  0
BLOCK_RECORD
  5
2AD
330
1
100
AcDbSymbolTableRecord
100
AcDbBlockTableRecord
  2
*D11
340
0
  0
BLOCK_RECORD
  5
397
330
1
100
AcDbSymbolTableRecord
100
AcDbBlockTableRecord
  2
*D12
340
0
  0
BLOCK_RECORD
  5
481
330
1
100
AcDbSymbolTableRecord
100
AcDbBlockTableRecord
  2
*D13
340
0
  0
BLOCK_RECORD
  5
57F
330
1
100
AcDbSymbolTableRecord
100
AcDbBlockTableRecord
  2
*D14
340
0
  0
BLOCK_RECORD
  5
66F
330
1
100
AcDbSymbolTableRecord
100
AcDbBlockTableRecord
  2
*D15
340
0
  0
BLOCK_RECORD
  5
773
330
1
100
AcDbSymbolTableRecord
100
AcDbBlockTableRecord
  2
*D16
340
0
  0
BLOCK_RECORD
  5
871
330
1
100
AcDbSymbolTableRecord
100
AcDbBlockTableRecord
  2
*D17
340
0
  0
BLOCK_RECORD
  5
96F
330
1
100
AcDbSymbolTableRecord
100
AcDbBlockTableRecord
  2
*D18
340
0
  0
BLOCK_RECORD
  5
A5F
330
1
100
AcDbSymbolTableRecord
100
AcDbBlockTableRecord
  2
*D19
340
0
  0
BLOCK_RECORD
  5
B95
330
1
100
AcDbSymbolTableRecord
100
AcDbBlockTableRecord
  2
*D20
340
0
  0
BLOCK_RECORD
  5
C85
330
1
100
AcDbSymbolTableRecord
100
AcDbBlockTableRecord
  2
*D21
340
0
  0
BLOCK_RECORD
  5
D6F
330
1
100
AcDbSymbolTableRecord
100
AcDbBlockTableRecord
  2
*D22
340
0
  0
BLOCK_RECORD
  5
E74
330
1
100
AcDbSymbolTableRecord
100
AcDbBlockTableRecord
  2
*D23
340
0
  0
ENDTAB
  0
ENDSEC
  0
SECTION
  2
BLOCKS
  0
BLOCK
  5
78
330
77
100
AcDbEntity
  8
0
100
AcDbBlockBegin
  2
*Model_Space
 70
     0
 10
0.0
 20
0.0
 30
0.0
  3
*Model_Space
  1

  0
ENDBLK
  5
79
330
77
100
AcDbEntity
  8
0
100
AcDbBlockEnd
  0
BLOCK
  5
74
330
73
100
AcDbEntity
 67
     1
  8
0
100
AcDbBlockBegin
  2
*Paper_Space
 70
     0
 10
0.0
 20
0.0
 30
0.0
  3
*Paper_Space
  1

  0
ENDBLK
  5
75
330
73
100
AcDbEntity
 67
     1
  8
0
100
AcDbBlockEnd
  0
BLOCK
  5
7C
330
7B
100
AcDbEntity
 67
     1
  8
0
100
AcDbBlockBegin
  2
*Paper_Space0
 70
     0
 10
0.0
 20
0.0
 30
0.0
  3
*Paper_Space0
  1

  0
ENDBLK
  5
7D
330
7B
100
AcDbEntity
 67
     1
  8
0
100
AcDbBlockEnd
  0
BLOCK
  5
E6
330
E5
100
AcDbEntity
  8
0
100
AcDbBlockBegin
  2
DatumFilled45
 70
     0
 10
0.0
 20
0.0
 30
0.0
  3
DatumFilled45
  1

  0
POLYLINE
  5
E8
330
E5
100
AcDbEntity
  8
0
 62
     0
100
AcDb2dPolyline
 66
     1
 10
0.0
 20
0.0
 30
0.0
 70
   128
  0
VERTEX
  5
E9
330
E8
100
AcDbEntity
  8
0
 62
     0
100
AcDbVertex
100
AcDb2dVertex
 10
0.0
 20
1.0
 30
0.0
  0
VERTEX
  5
EA
330
E8
100
AcDbEntity
  8
0
 62
     0
100
AcDbVertex
100
AcDb2dVertex
 10
0.0
 20
-1.0
 30
0.0
  0
VERTEX
  5
EC
330
E8
100
AcDbEntity
  8
0
 62
     0
100
AcDbVertex
100
AcDb2dVertex
 10
-1.0
 20
0.0
 30
0.0
  0
VERTEX
  5
ED
330
E8
100
AcDbEntity
  8
0
 62
     0
100
AcDbVertex
100
AcDb2dVertex
 10
0.0
 20
1.0
 30
0.0
  0
SEQEND
  5
EB
330
E8
100
AcDbEntity
  8
0
 62
     0
  0
SOLID
  5
EE
330
E5
100
AcDbEntity
  8
0
 62
     0
100
AcDbTrace
 10
0.0
 20
1.0
 30
0.0
 11
0.0
 21
-1.0
 31
0.0
 12
-1.0
 22
0.0
 32
0.0
 13
0.0
 23
1.0
 33
0.0
  0
ENDBLK
  5
E7
330
E5
100
AcDbEntity
  8
0
100
AcDbBlockEnd
  0
BLOCK
  5
F5
330
F0
100
AcDbEntity
  8
0
100
AcDbBlockBegin
  2
_Closed
 70
     0
 10
0.0
 20
0.0
 30
0.0
  3
_Closed
  1

  0
LINE
  5
F1
330
F0
100
AcDbEntity
  8
0
  6
ByBlock
 62
     0
370
    -2
100
AcDbLine
 10
-1.0
 20
0.1666666666666666
 30
0.0
 11
0.0
 21
0.0
 31
0.0
  0
LINE
  5
F2
330
F0
100
AcDbEntity
  8
0
  6
ByBlock
 62
     0
370
    -2
100
AcDbLine
 10
0.0
 20
0.0
 30
0.0
 11
-1.0
 21
-0.1666666666666666
 31
0.0
  0
LINE
  5
F3
330
F0
100
AcDbEntity
  8
0
  6
ByBlock
 62
     0
370
    -2
100
AcDbLine
 10
-1.0
 20
0.1666666666666666
 30
0.0
 11
-1.0
 21
-0.1666666666666666
 31
0.0
  0
LINE
  5
F4
330
F0
100
AcDbEntity
  8
0
  6
ByBlock
 62
     0
370
    -2
100
AcDbLine
 10
0.0
 20
0.0
 30
0.0
 11
-1.0
 21
0.0
 31
0.0
  0
ENDBLK
  5
F6
330
F0
100
AcDbEntity
  8
0
100
AcDbBlockEnd
  0
BLOCK
  5
100
330
FF
100
AcDbEntity
  8
0
100
AcDbBlockBegin
  2
Index
 70
     2
 10
0.0
 20
0.0
 30
0.0
  3
Index
  1

  0
CIRCLE
  5
102
330
FF
100
AcDbEntity
  8
Sketch Geometry(ISO)
  6
Continuous
 62
     7
370
    25
100
AcDbCircle
 10
0.0
 20
0.0
 30
0.0
 40
2.5
  0
ATTDEF
  5
104
102
{ACAD_XDICTIONARY
360
F6F
102
}
330
FF
100
AcDbEntity
  8
Symbols(ISO)
 62
     7
100
AcDbText
 10
-0.0000000000000001
 20
-1.25
 30
0.0
 40
2.5
  1

 41
0.899999976158142
  7
Text Style49
 72
     1
 11
0.0
 21
0.0
 31
0.0
100
AcDbAttributeDefinition
  3
<Enter Prompt for Field>
  2
<Enter_Prompt_for_Field>
 70
     0
 74
     2
  0
ENDBLK
  5
101
330
FF
100
AcDbEntity
  8
0
100
AcDbBlockEnd
  0
BLOCK
  5
109
330
108
100
AcDbEntity
  8
0
100
AcDbBlockBegin
  2
AIR
 70
     0
 10
0.0
 20
0.0
 30
0.0
  3
AIR
  1

  0
LINE
  5
10B
330
108
100
AcDbEntity
  8
Sketch Geometry(ISO)
 62
     7
370
    70
100
AcDbLine
 10
-7.000000000000001
 20
6.000000000000049
 30
0.0
 11
6.999999999999992
 21
6.000000000000014
 31
0.0
  0
LINE
  5
10C
330
108
100
AcDbEntity
  8
Sketch Geometry(ISO)
 62
     7
370
    70
100
AcDbLine
 10
10.00000000000001
 20
3.000000000000007
 30
0.0
 11
10.00000000000001
 21
-2.999999999999971
 31
0.0
  0
LINE
  5
10D
330
108
100
AcDbEntity
  8
Sketch Geometry(ISO)
 62
     7
370
    70
100
AcDbLine
 10
6.999999999999992
 20
-5.999999999999978
 30
0.0
 11
-7.000000000000001
 21
-6.000000000000014
 31
0.0
  0
LINE
  5
10E
330
108
100
AcDbEntity
  8
Sketch Geometry(ISO)
 62
     7
370
    70
100
AcDbLine
 10
-10.00000000000001
 20
-2.999999999999971
 30
0.0
 11
-10.0
 21
3.000000000000007
 31
0.0
  0
ARC
  5
10F
330
108
100
AcDbEntity
  8
Sketch Geometry(ISO)
 62
     7
370
    70
100
AcDbCircle
 10
6.999999999999992
 20
3.000000000000007
 30
0.0
 40
3.0
100
AcDbArc
 50
0.0
 51
90.0
  0
ARC
  5
110
330
108
100
AcDbEntity
  8
Sketch Geometry(ISO)
 62
     7
370
    70
100
AcDbCircle
 10
6.999999999999992
 20
-2.999999999999971
 30
0.0
 40
3.0
100
AcDbArc
 50
270.0
 51
0.0
  0
ARC
  5
111
330
108
100
AcDbEntity
  8
Sketch Geometry(ISO)
 62
     7
370
    70
100
AcDbCircle
 10
-7.000000000000001
 20
-2.999999999999971
 30
0.0
 40
3.0
100
AcDbArc
 50
180.0
 51
270.0
  0
ARC
  5
112
330
108
100
AcDbEntity
  8
Sketch Geometry(ISO)
 62
     7
370
    70
100
AcDbCircle
 10
-7.000000000000001
 20
3.000000000000007
 30
0.0
 40
3.0
100
AcDbArc
 50
90.0
 51
180.0
  0
MTEXT
  5
113
330
108
100
AcDbEntity
  8
Symbols(ISO)
 62
     7
100
AcDbMText
 10
0.0
 20
0.0
 30
0.0
 40
6.99999988079071
 41
16.10195276430038
 71
     5
 72
     1
  1
\fArial|b0|i0;\H7.0000;AIR
  7
Text__3.5mm
 73
     1
 44
1.0
  0
ENDBLK
  5
10A
330
108
100
AcDbEntity
  8
0
100
AcDbBlockEnd
  0
BLOCK
  5
116
330
115
100
AcDbEntity
  8
0
100
AcDbBlockBegin
  2
Zertifizierungszeichnung
 70
     0
 10
0.0
 20
0.0
 30
0.0
  3
Zertifizierungszeichnung
  1

  0
LINE
  5
118
330
115
100
AcDbEntity
  8
Sketch Geometry(ISO)
100
AcDbLine
 10
-36.13491376407675
 20
6.581399957023617
 30
0.0
 11
36.13491376407676
 21
6.581399957023617
 31
0.0
  0
LINE
  5
119
330
115
100
AcDbEntity
  8
Sketch Geometry(ISO)
100
AcDbLine
 10
36.13491376407676
 20
6.581399957023617
 30
0.0
 11
36.13491376407676
 21
-6.581399957023634
 31
0.0
  0
LINE
  5
11A
330
115
100
AcDbEntity
  8
Sketch Geometry(ISO)
100
AcDbLine
 10
36.13491376407676
 20
-6.581399957023634
 30
0.0
 11
-36.13491376407675
 21
-6.581399957023634
 31
0.0
  0
LINE
  5
11B
330
115
100
AcDbEntity
  8
Sketch Geometry(ISO)
100
AcDbLine
 10
-36.13491376407675
 20
-6.581399957023634
 30
0.0
 11
-36.13491376407675
 21
6.581399957023617
 31
0.0
  0
MTEXT
  5
11C
330
115
100
AcDbEntity
  8
Symbols(ISO)
 62
     7
100
AcDbMText
 10
-34.13997890763035
 20
-0.338671892615654
 30
0.0
 40
3.000000119209289
 41
0.0
 71
     4
 72
     1
  1
\fTahoma|b0|i0;\H3.0000;Drawing for certification purposes only!\PDrawing not for manufacturing purposes!
  7
Text__3.5mm
 73
     2
 44
0.9442214369773864
  0
ENDBLK
  5
117
330
115
100
AcDbEntity
  8
0
100
AcDbBlockEnd
  0
BLOCK
  5
11E
330
11D
100
AcDbEntity
  8
0
100
AcDbBlockBegin
  2
Pfeil 1_1
 70
     0
 10
0.0
 20
0.0
 30
0.0
  3
Pfeil 1_1
  1

  0
HATCH
  5
127
330
11D
100
AcDbEntity
  8
Hatch
100
AcDbHatch
 10
0.0
 20
0.0
 30
0.0
210
0.0
220
0.0
230
1.0
  2
ANSI31
 70
     0
 71
     0
 91
        1
 92
        1
 93
        7
 72
     1
 10
-2.327499999999815
 20
0.6650000000002621
 11
0.0
 21
-2.659999999999875
 72
     1
 10
0.0
 20
-2.659999999999875
 11
2.327499999999833
 21
0.6650000000002621
 72
     1
 10
2.327499999999833
 20
0.6650000000002621
 11
0.6649999999998713
 21
0.6650000000002621
 72
     1
 10
0.6649999999998713
 20
0.6650000000002621
 11
0.6649999999998713
 21
2.659999999999858
 72
     1
 10
0.6649999999998713
 20
2.659999999999858
 11
-0.6649999999999779
 21
2.659999999999858
 72
     1
 10
-0.6649999999999779
 20
2.659999999999858
 11
-0.6649999999999779
 21
0.6650000000002621
 72
     1
 10
-0.6649999999999779
 20
0.6650000000002621
 11
-2.327499999999815
 21
0.6650000000002621
 97
        0
 75
     0
 76
     1
 52
0.0
 41
0.0254
 77
     0
 78
     1
 53
45.0
 43
0.0
 44
0.0
 45
-0.0022450640302673
 46
0.0022450640302673
 79
     0
 98
        1
 10
0.0
 20
0.0
  0
LINE
  5
128
330
11D
100
AcDbEntity
  8
MaSichtkante dünnFliese
370
     5
100
AcDbLine
 10
-2.327499999999815
 20
0.6650000000002621
 30
0.0
 11
-0.6649999999999779
 21
0.6650000000002621
 31
0.0
  0
LINE
  5
129
330
11D
100
AcDbEntity
  8
MaSichtkante dünnFliese
370
     5
100
AcDbLine
 10
0.0
 20
-2.659999999999875
 30
0.0
 11
-2.327499999999815
 21
0.6650000000002621
 31
0.0
  0
LINE
  5
12A
330
11D
100
AcDbEntity
  8
MaSichtkante dünnFliese
370
     5
100
AcDbLine
 10
-0.6649999999999779
 20
0.6650000000002621
 30
0.0
 11
-0.6649999999999779
 21
2.659999999999858
 31
0.0
  0
LINE
  5
12B
330
11D
100
AcDbEntity
  8
MaSichtkante dünnFliese
370
     5
100
AcDbLine
 10
-0.6649999999999779
 20
2.659999999999858
 30
0.0
 11
0.6649999999998713
 21
2.659999999999858
 31
0.0
  0
LINE
  5
12C
330
11D
100
AcDbEntity
  8
MaSichtkante dünnFliese
370
     5
100
AcDbLine
 10
0.6649999999998713
 20
2.659999999999858
 30
0.0
 11
0.6649999999998713
 21
0.6650000000002621
 31
0.0
  0
LINE
  5
12D
330
11D
100
AcDbEntity
  8
MaSichtkante dünnFliese
370
     5
100
AcDbLine
 10
2.327499999999833
 20
0.6650000000002621
 30
0.0
 11
0.0
 21
-2.659999999999875
 31
0.0
  0
LINE
  5
12E
330
11D
100
AcDbEntity
  8
MaSichtkante dünnFliese
370
     5
100
AcDbLine
 10
0.6649999999998713
 20
0.6650000000002621
 30
0.0
 11
2.327499999999833
 21
0.6650000000002621
 31
0.0
  0
ENDBLK
  5
11F
330
11D
100
AcDbEntity
  8
0
100
AcDbBlockEnd
  0
BLOCK
  5
130
330
12F
100
AcDbEntity
  8
0
100
AcDbBlockBegin
  2
TWK 1_1
 70
     0
 10
0.0
 20
0.0
 30
0.0
  3
TWK 1_1
  1

  0
HATCH
  5
134
330
12F
100
AcDbEntity
  8
Hatch
100
AcDbHatch
 10
0.0
 20
0.0
 30
0.0
210
0.0
220
0.0
230
1.0
  2
ANSI31
 70
     0
 71
     0
 91
        1
 92
        1
 93
        2
 72
     2
 10
0.0
 20
-3.324999949999316
 40
2.659999999999999
 50
148.4507563219768
 51
391.549243678031
 73
     1
 72
     1
 10
2.266827476457926
 20
-1.933204996720494
 11
-2.266827476458601
 21
-1.933204996720494
 97
        0
 75
     0
 76
     1
 52
0.0
 41
0.0254
 77
     0
 78
     1
 53
45.0
 43
0.0
 44
0.0
 45
-0.0022450640302673
 46
0.0022450640302673
 79
     0
 98
        1
 10
0.0
 20
0.0
  0
LINE
  5
135
330
12F
100
AcDbEntity
  8
MaSichtkante dünnFliese
100
AcDbLine
 10
-2.266827476458601
 20
-1.933204996720494
 30
0.0
 11
2.266827476457926
 21
-1.933204996720494
 31
0.0
  0
ARC
  5
136
330
12F
100
AcDbEntity
  8
MaSichtkante dünnFliese
100
AcDbCircle
 10
0.0
 20
-3.324999949999316
 30
0.0
 40
2.66
100
AcDbArc
 50
112.0243128370458
 51
67.97568716296805
  0
LINE
  5
137
330
12F
100
AcDbEntity
  8
MaSichtkante dünnFliese
100
AcDbLine
 10
-0.9975000000001621
 20
-0.8591139530400582
 30
0.0
 11
-0.9975000000001621
 21
5.985000049999325
 31
0.0
  0
LINE
  5
138
330
12F
100
AcDbEntity
  8
MaSichtkante dünnFliese
100
AcDbLine
 10
0.9974999999994693
 20
5.985000049999325
 30
0.0
 11
0.9974999999994693
 21
-0.8591139530400582
 31
0.0
  0
LINE
  5
139
330
12F
100
AcDbEntity
  8
MaSichtkante dünnFliese
100
AcDbLine
 10
0.9974999999994871
 20
2.827327836441568
 30
0.0
 11
2.194499999999255
 21
2.827327836441568
 31
0.0
  0
LINE
  5
13A
330
12F
100
AcDbEntity
  8
MaSichtkante dünnFliese
100
AcDbLine
 10
-0.9975000000001621
 20
5.985000049999325
 30
0.0
 11
0.9974999999994693
 21
5.985000049999325
 31
0.0
  0
LINE
  5
13B
330
12F
100
AcDbEntity
  8
MaSichtkante dünnFliese
100
AcDbLine
 10
0.9974999999994693
 20
4.932451836441167
 30
0.0
 11
2.194499999999237
 21
4.932451836441167
 31
0.0
  0
LINE
  5
13C
330
12F
100
AcDbEntity
  8
MaSichtkante dünnFliese
100
AcDbLine
 10
0.9974999999994693
 20
0.7222038364418637
 30
0.0
 11
2.194499999999237
 21
0.7222038364418637
 31
0.0
  0
ENDBLK
  5
131
330
12F
100
AcDbEntity
  8
0
100
AcDbBlockEnd
  0
BLOCK
  5
13E
330
13D
100
AcDbEntity
  8
0
100
AcDbBlockBegin
  2
TWW 1_1
 70
     0
 10
0.0
 20
0.0
 30
0.0
  3
TWW 1_1
  1

  0
HATCH
  5
144
330
13D
100
AcDbEntity
  8
Hatch
100
AcDbHatch
 10
0.0
 20
0.0
 30
0.0
210
0.0
220
0.0
230
1.0
  2
ANSI31
 70
     0
 71
     0
 91
        1
 92
        1
 93
        4
 72
     1
 10
0.9974999999997891
 20
4.796219377687265
 11
-0.997500000000091
 21
4.796219377687265
 72
     1
 10
-0.997500000000091
 20
4.796219377687265
 11
-0.997500000000091
 21
-0.8591139530402891
 72
     2
 10
0.0
 20
-3.324999950000062
 40
2.659999999999828
 50
112.0243128370404
 51
427.9756871629659
 73
     1
 72
     1
 10
0.9974999999997891
 20
-0.8591139530402891
 11
0.9974999999997891
 21
4.796219377687265
 97
        0
 75
     0
 76
     1
 52
0.0
 41
0.0254
 77
     0
 78
     1
 53
45.0
 43
0.0
 44
0.0
 45
-0.0022450640302673
 46
0.0022450640302673
 79
     0
 98
        1
 10
0.0
 20
0.0
  0
LINE
  5
145
330
13D
100
AcDbEntity
  8
MaSichtkante dünnFliese
370
    18
100
AcDbLine
 10
0.9974999999997891
 20
4.893283779707644
 30
0.0
 11
2.194499999999734
 21
4.893283779707644
 31
0.0
  0
LINE
  5
146
330
13D
100
AcDbEntity
  8
MaSichtkante dünnFliese
370
    18
100
AcDbLine
 10
0.9974999999997891
 20
0.8330332774134241
 30
0.0
 11
2.194499999999734
 21
0.8330332774134241
 31
0.0
  0
LINE
  5
147
330
13D
100
AcDbEntity
  8
MaSichtkante dünnFliese
370
    18
100
AcDbLine
 10
0.9974999999997891
 20
2.863158528560525
 30
0.0
 11
2.194499999999734
 21
2.863158528560525
 31
0.0
  0
LINE
  5
148
330
13D
100
AcDbEntity
  8
Sketch Geometry(DIN)
370
    18
100
AcDbLine
 10
0.9974999999997891
 20
5.985000049999911
 30
0.0
 11
0.9974999999997891
 21
-0.8591139530402891
 31
0.0
  0
LINE
  5
149
330
13D
100
AcDbEntity
  8
MaSichtkante dünnFliese
100
AcDbLine
 10
-0.997500000000091
 20
5.985000049999911
 30
0.0
 11
0.9974999999997891
 21
5.985000049999911
 31
0.0
  0
LINE
  5
14A
330
13D
100
AcDbEntity
  8
MaSichtkante dünnFliese
100
AcDbLine
 10
-0.997500000000091
 20
-0.8591139530402891
 30
0.0
 11
-0.997500000000091
 21
5.985000049999911
 31
0.0
  0
LINE
  5
14B
330
13D
100
AcDbEntity
  8
MaSichtkante dünnFliese
370
    18
100
AcDbLine
 10
-0.997500000000091
 20
4.796219377687265
 30
0.0
 11
0.9974999999997891
 21
4.796219377687265
 31
0.0
  0
ARC
  5
14C
330
13D
100
AcDbEntity
  8
MaSichtkante dünnFliese
370
    18
100
AcDbCircle
 10
0.0
 20
-3.324999950000062
 30
0.0
 40
2.659999999999829
100
AcDbArc
 50
112.0243128370402
 51
67.9756871629658
  0
ENDBLK
  5
13F
330
13D
100
AcDbEntity
  8
0
100
AcDbBlockEnd
  0
BLOCK
  5
14E
330
14D
100
AcDbEntity
  8
0
100
AcDbBlockBegin
  2
Title Blocks WS-Marketing-FUN
 70
     2
 10
0.0
 20
0.0
 30
0.0
  3
Title Blocks WS-Marketing-FUN
  1

  0
LINE
  5
150
330
14D
100
AcDbEntity
  8
Visible Edges(DIN)
100
AcDbLine
 10
89.59999999999997
 20
100.2741925130958
 30
0.0
 11
289.6
 21
100.2741925130958
 31
0.0
  0
LINE
  5
151
330
14D
100
AcDbEntity
  8
Visible Edges(DIN)
100
AcDbLine
 10
289.6
 20
100.2741925130958
 30
0.0
 11
289.6
 21
146.0241925130958
 31
0.0
  0
LINE
  5
152
330
14D
100
AcDbEntity
  8
Visible Edges(DIN)
100
AcDbLine
 10
289.6
 20
146.0241925130958
 30
0.0
 11
89.6
 21
146.0241925130958
 31
0.0
  0
LINE
  5
153
330
14D
100
AcDbEntity
  8
Visible Edges(DIN)
100
AcDbLine
 10
89.59999999999999
 20
146.0241925130958
 30
0.0
 11
89.59999999999997
 21
100.2741925130958
 31
0.0
  0
LINE
  5
154
330
14D
100
AcDbEntity
  8
Visible Edges(DIN)
100
AcDbLine
 10
154.6
 20
100.2741925130958
 30
0.0
 11
154.6
 21
146.0241925130958
 31
0.0
  0
LINE
  5
155
330
14D
100
AcDbEntity
  8
Visible Edges(DIN)
100
AcDbLine
 10
204.6
 20
100.2741925130958
 30
0.0
 11
204.6
 21
146.0241925130958
 31
0.0
  0
LINE
  5
156
330
14D
100
AcDbEntity
  8
Sketch Geometry(ISO)
  6
Continuous
 62
     7
370
    25
100
AcDbLine
 10
109.6
 20
131.0241925130958
 30
0.0
 11
109.6
 21
146.0241925130958
 31
0.0
  0
LINE
  5
157
330
14D
100
AcDbEntity
  8
Sketch Geometry(ISO)
  6
Continuous
 62
     7
370
    25
100
AcDbLine
 10
89.59999999999999
 20
138.5241925130958
 30
0.0
 11
154.6
 21
138.5241925130958
 31
0.0
  0
LINE
  5
158
330
14D
100
AcDbEntity
  8
Sketch Geometry(ISO)
  6
Continuous
 62
     7
370
    25
100
AcDbLine
 10
89.59999999999999
 20
131.0241925130958
 30
0.0
 11
154.6
 21
131.0241925130958
 31
0.0
  0
LINE
  5
159
330
14D
100
AcDbEntity
  8
Sketch Geometry(ISO)
  6
Continuous
 62
     7
370
    25
100
AcDbLine
 10
289.6
 20
110.2741925130957
 30
0.0
 11
204.6
 21
110.2741925130957
 31
0.0
  0
LINE
  5
15A
330
14D
100
AcDbEntity
  8
Sketch Geometry(ISO)
  6
Continuous
 62
     7
370
    25
100
AcDbLine
 10
216.6
 20
100.2741925130958
 30
0.0
 11
216.6
 21
110.2741925130957
 31
0.0
  0
LINE
  5
15B
330
14D
100
AcDbEntity
  8
Sketch Geometry(ISO)
  6
Continuous
 62
     7
370
    25
100
AcDbLine
 10
282.1
 20
110.2741925130957
 30
0.0
 11
282.1
 21
100.2741925130958
 31
0.0
  0
LINE
  5
15C
330
14D
100
AcDbEntity
  8
Sketch Geometry(ISO)
  6
Continuous
 62
     7
370
    25
100
AcDbLine
 10
274.6
 20
110.2741925130957
 30
0.0
 11
274.6
 21
100.2741925130958
 31
0.0
  0
LINE
  5
15D
330
14D
100
AcDbEntity
  8
Sketch Geometry(ISO)
  6
Continuous
 62
     7
370
    25
100
AcDbLine
 10
220.7048524866916
 20
143.6616925130957
 30
0.0
 11
226.2048524866916
 21
144.4616925130957
 31
0.0
  0
LINE
  5
15E
330
14D
100
AcDbEntity
  8
Centerline(ISO)
  6
Continuous
 62
     7
370
    18
100
AcDbLine
 10
227.2048524866917
 20
142.4616925130957
 30
0.0
 11
219.7048524866915
 21
142.4616925130957
 31
0.0
  0
LINE
  5
15F
330
14D
100
AcDbEntity
  8
Sketch Geometry(ISO)
  6
Continuous
 62
     7
370
    25
100
AcDbLine
 10
220.7048524866916
 20
143.6616925130957
 30
0.0
 11
220.7048524866916
 21
141.2616925130957
 31
0.0
  0
LINE
  5
160
330
14D
100
AcDbEntity
  8
Sketch Geometry(ISO)
  6
Continuous
 62
     7
370
    25
100
AcDbLine
 10
220.7048524866916
 20
141.2616925130957
 30
0.0
 11
226.2048524866916
 21
140.4616925130957
 31
0.0
  0
LINE
  5
161
330
14D
100
AcDbEntity
  8
Centerline(ISO)
  6
Continuous
 62
     7
370
    18
100
AcDbLine
 10
227.7048524866915
 20
142.4616925130957
 30
0.0
 11
233.7048524866915
 21
142.4616925130957
 31
0.0
  0
LINE
  5
162
330
14D
100
AcDbEntity
  8
Sketch Geometry(ISO)
  6
Continuous
 62
     7
370
    25
100
AcDbLine
 10
226.2048524866916
 20
144.4616925130957
 30
0.0
 11
226.2048524866916
 21
140.4616925130957
 31
0.0
  0
CIRCLE
  5
163
330
14D
100
AcDbEntity
  8
Sketch Geometry(ISO)
  6
Continuous
 62
     7
370
    25
100
AcDbCircle
 10
230.7048524866915
 20
142.4616925130957
 30
0.0
 40
1.199999999999999
  0
LINE
  5
164
330
14D
100
AcDbEntity
  8
Centerline(ISO)
  6
Continuous
 62
     7
370
    18
100
AcDbLine
 10
230.7048524866914
 20
145.4616925130957
 30
0.0
 11
230.7048524866914
 21
139.4616925130957
 31
0.0
  0
CIRCLE
  5
165
330
14D
100
AcDbEntity
  8
Sketch Geometry(ISO)
  6
Continuous
 62
     7
370
    25
100
AcDbCircle
 10
230.7048524866915
 20
142.4616925130957
 30
0.0
 40
2.0
  0
LINE
  5
166
330
14D
100
AcDbEntity
  8
Sketch Geometry(ISO)
  6
Continuous
 62
     7
370
    25
100
AcDbLine
 10
134.6
 20
131.0241925130958
 30
0.0
 11
134.6
 21
146.0241925130958
 31
0.0
  0
LINE
  5
167
330
14D
100
AcDbEntity
  8
Sketch Geometry(ISO)
  6
Continuous
 62
     7
370
    35
100
AcDbLine
 10
204.6
 20
138.5241925130958
 30
0.0
 11
289.6
 21
138.5241925130958
 31
0.0
  0
LINE
  5
168
330
14D
100
AcDbEntity
  8
Sketch Geometry(ISO)
  6
Continuous
 62
     7
370
    25
100
AcDbLine
 10
204.6
 20
131.0241925130958
 30
0.0
 11
289.6
 21
131.0241925130958
 31
0.0
  0
LINE
  5
169
330
14D
100
AcDbEntity
  8
Sketch Geometry(ISO)
  6
Continuous
 62
     7
370
    25
100
AcDbLine
 10
247.1
 20
146.0241925130957
 30
0.0
 11
247.1
 21
131.0241925130958
 31
0.0
  0
LINE
  5
16A
330
14D
100
AcDbEntity
  8
Sketch Geometry(ISO)
  6
Continuous
 62
     7
370
    25
100
AcDbLine
 10
263.6
 20
110.2741925130957
 30
0.0
 11
263.6
 21
100.2741925130958
 31
0.0
  0
LINE
  5
16B
330
14D
100
AcDbEntity
  8
Sketch Geometry(DIN)
  6
Continuous
 62
     7
370
    18
100
AcDbLine
 10
104.8419687591776
 20
126.4474596613701
 30
0.0
 11
104.708542955785
 21
126.4474596613701
 31
0.0
  0
LINE
  5
16C
330
14D
100
AcDbEntity
  8
Sketch Geometry(DIN)
  6
Continuous
 62
     7
370
    18
100
AcDbLine
 10
104.8419687591776
 20
125.9871380380973
 30
0.0
 11
104.8419687591776
 21
126.4474596613701
 31
0.0
  0
LINE
  5
16D
330
14D
100
AcDbEntity
  8
Sketch Geometry(DIN)
  6
Continuous
 62
     7
370
    18
100
AcDbLine
 10
105.032169470591
 20
126.4492027126165
 30
0.0
 11
105.032169470591
 21
125.9888377298602
 31
0.0
  0
LINE
  5
16E
330
14D
100
AcDbEntity
  8
Sketch Geometry(DIN)
  6
Continuous
 62
     7
370
    18
100
AcDbLine
 10
106.9469156010504
 20
125.9888377298602
 30
0.0
 11
106.9469156010504
 21
126.6493414177054
 31
0.0
  0
LINE
  5
16F
330
14D
100
AcDbEntity
  8
Sketch Geometry(DIN)
  6
Continuous
 62
     7
370
    18
100
AcDbLine
 10
105.032169470591
 20
125.9888377298602
 30
0.0
 11
106.9469156010504
 21
125.9888377298602
 31
0.0
  0
LINE
  5
170
330
14D
100
AcDbEntity
  8
Sketch Geometry(DIN)
  6
Continuous
 62
     7
370
    18
100
AcDbLine
 10
102.420185497654
 20
128.0753567911394
 30
0.0
 11
102.420185497654
 21
127.6550386275736
 31
0.0
  0
LINE
  5
171
330
14D
100
AcDbEntity
  8
Sketch Geometry(DIN)
  6
Continuous
 62
     7
370
    18
100
AcDbLine
 10
103.5743629236721
 20
128.0753567911394
 30
0.0
 11
102.420185497654
 21
128.0753567911394
 31
0.0
  0
LINE
  5
172
330
14D
100
AcDbEntity
  8
Sketch Geometry(DIN)
  6
Continuous
 62
     7
370
    18
100
AcDbLine
 10
103.4275910711816
 20
127.1946823167133
 30
0.0
 11
103.4275910711816
 21
127.6550386275736
 31
0.0
  0
LINE
  5
173
330
14D
100
AcDbEntity
  8
Sketch Geometry(DIN)
  6
Continuous
 62
     7
370
    18
100
AcDbLine
 10
103.4275910711816
 20
127.6550386275736
 30
0.0
 11
103.5743629236721
 21
127.6550386275736
 31
0.0
  0
LINE
  5
174
330
14D
100
AcDbEntity
  8
Sketch Geometry(DIN)
  6
Continuous
 62
     7
370
    18
100
AcDbLine
 10
103.5743629236721
 20
127.6550386275736
 30
0.0
 11
103.5743629236721
 21
128.0753567911394
 31
0.0
  0
LINE
  5
175
330
14D
100
AcDbEntity
  8
Sketch Geometry(DIN)
  6
Continuous
 62
     7
370
    18
100
AcDbLine
 10
103.7344894971573
 20
128.0753567911394
 30
0.0
 11
103.7344894971573
 21
127.6550386275736
 31
0.0
  0
LINE
  5
176
330
14D
100
AcDbEntity
  8
Sketch Geometry(DIN)
  6
Continuous
 62
     7
370
    18
100
AcDbLine
 10
103.8679153005499
 20
127.6550386275736
 30
0.0
 11
103.4275910711816
 21
127.1946823167133
 31
0.0
  0
LINE
  5
177
330
14D
100
AcDbEntity
  8
Sketch Geometry(DIN)
  6
Continuous
 62
     7
370
    18
100
AcDbLine
 10
103.7344894971573
 20
127.6550386275736
 30
0.0
 11
103.8679153005499
 21
127.6550386275736
 31
0.0
  0
LINE
  5
178
330
14D
100
AcDbEntity
  8
Sketch Geometry(DIN)
  6
Continuous
 62
     7
370
    18
100
AcDbLine
 10
104.0880947590273
 20
127.1813622833059
 30
0.0
 11
104.541765037493
 21
127.6616986442773
 31
0.0
  0
LINE
  5
179
330
14D
100
AcDbEntity
  8
Sketch Geometry(DIN)
  6
Continuous
 62
     7
370
    18
100
AcDbLine
 10
104.541765037493
 20
127.6616986442773
 30
0.0
 11
104.7152029724891
 21
127.6616986442773
 31
0.0
  0
LINE
  5
17A
330
14D
100
AcDbEntity
  8
Sketch Geometry(DIN)
  6
Continuous
 62
     7
370
    18
100
AcDbLine
 10
104.7152029724891
 20
127.6616986442773
 30
0.0
 11
104.7152029724891
 21
128.0753567911394
 31
0.0
  0
LINE
  5
17B
330
14D
100
AcDbEntity
  8
Sketch Geometry(DIN)
  6
Continuous
 62
     7
370
    18
100
AcDbLine
 10
104.7152029724891
 20
128.0753567911394
 30
0.0
 11
103.7344894971573
 21
128.0753567911394
 31
0.0
  0
LINE
  5
17C
330
14D
100
AcDbEntity
  8
Sketch Geometry(DIN)
  6
Continuous
 62
     7
370
    18
100
AcDbLine
 10
106.466544552492
 20
126.8695208761829
 30
0.0
 11
106.466544552492
 21
127.2230827785689
 31
0.0
  0
LINE
  5
17D
330
14D
100
AcDbEntity
  8
Sketch Geometry(DIN)
  6
Continuous
 62
     7
370
    18
100
AcDbLine
 10
106.5065913716826
 20
126.4492027126165
 30
0.0
 11
106.0462697484097
 21
126.4492027126165
 31
0.0
  0
LINE
  5
17E
330
14D
100
AcDbEntity
  8
Sketch Geometry(DIN)
  6
Continuous
 62
     7
370
    18
100
AcDbLine
 10
106.0462697484097
 20
126.4492027126165
 30
0.0
 11
106.0462697484097
 21
126.8695208761829
 31
0.0
  0
LINE
  5
17F
330
14D
100
AcDbEntity
  8
Sketch Geometry(DIN)
  6
Continuous
 62
     7
370
    18
100
AcDbLine
 10
106.0462697484097
 20
126.8695208761829
 30
0.0
 11
106.466544552492
 21
126.8695208761829
 31
0.0
  0
LINE
  5
180
330
14D
100
AcDbEntity
  8
Sketch Geometry(DIN)
  6
Continuous
 62
     7
370
    18
100
AcDbLine
 10
106.5065913716826
 20
127.4299161879484
 30
0.0
 11
106.9469156010504
 21
127.4299161879484
 31
0.0
  0
LINE
  5
181
330
14D
100
AcDbEntity
  8
Sketch Geometry(DIN)
  6
Continuous
 62
     7
370
    18
100
AcDbLine
 10
106.466544552492
 20
127.2230827785689
 30
0.0
 11
106.0462697484097
 21
127.2230827785689
 31
0.0
  0
LINE
  5
182
330
14D
100
AcDbEntity
  8
Sketch Geometry(DIN)
  6
Continuous
 62
     7
370
    18
100
AcDbLine
 10
106.5065913716826
 20
127.6500869745293
 30
0.0
 11
106.5065913716826
 21
127.4299161879484
 31
0.0
  0
LINE
  5
183
330
14D
100
AcDbEntity
  8
Sketch Geometry(DIN)
  6
Continuous
 62
     7
370
    18
100
AcDbLine
 10
106.0462697484097
 20
127.6500869745293
 30
0.0
 11
106.5065913716826
 21
127.6500869745293
 31
0.0
  0
LINE
  5
184
330
14D
100
AcDbEntity
  8
Sketch Geometry(DIN)
  6
Continuous
 62
     7
370
    18
100
AcDbLine
 10
106.0462697484097
 20
127.2230827785689
 30
0.0
 11
106.0462697484097
 21
127.6500869745293
 31
0.0
  0
LINE
  5
185
330
14D
100
AcDbEntity
  8
Sketch Geometry(DIN)
  6
Continuous
 62
     7
370
    18
100
AcDbLine
 10
105.2323081756798
 20
126.4492027126165
 30
0.0
 11
105.032169470591
 21
126.4492027126165
 31
0.0
  0
LINE
  5
186
330
14D
100
AcDbEntity
  8
Sketch Geometry(DIN)
  6
Continuous
 62
     7
370
    18
100
AcDbLine
 10
105.2323081756798
 20
127.6500869745293
 30
0.0
 11
105.2323081756798
 21
126.4492027126165
 31
0.0
  0
LINE
  5
187
330
14D
100
AcDbEntity
  8
Sketch Geometry(DIN)
  6
Continuous
 62
     7
370
    18
100
AcDbLine
 10
106.9469156010504
 20
127.4299161879484
 30
0.0
 11
106.9469156010504
 21
128.0770651547993
 31
0.0
  0
LINE
  5
188
330
14D
100
AcDbEntity
  8
Sketch Geometry(DIN)
  6
Continuous
 62
     7
370
    18
100
AcDbLine
 10
106.9469156010504
 20
128.0770651547993
 30
0.0
 11
105.032169470591
 21
128.0770651547993
 31
0.0
  0
LINE
  5
189
330
14D
100
AcDbEntity
  8
Sketch Geometry(DIN)
  6
Continuous
 62
     7
370
    18
100
AcDbLine
 10
105.032169470591
 20
128.0770651547993
 30
0.0
 11
105.032169470591
 21
127.6500869745293
 31
0.0
  0
LINE
  5
18A
330
14D
100
AcDbEntity
  8
Sketch Geometry(DIN)
  6
Continuous
 62
     7
370
    18
100
AcDbLine
 10
102.0646377309122
 20
124.5375774404595
 30
0.0
 11
102.0646377309122
 21
129.533943808766
 31
0.0
  0
LINE
  5
18B
330
14D
100
AcDbEntity
  8
Sketch Geometry(DIN)
  6
Continuous
 62
     7
370
    18
100
AcDbLine
 10
102.2772726392172
 20
124.5367536102683
 30
0.0
 11
107.2676023428579
 21
124.5375774404595
 31
0.0
  0
LINE
  5
18C
330
14D
100
AcDbEntity
  8
Sketch Geometry(DIN)
  6
Continuous
 62
     7
370
    18
100
AcDbLine
 10
107.2676023428579
 20
124.5375774404595
 30
0.0
 11
107.2676023428579
 21
129.533943808766
 31
0.0
  0
LINE
  5
18D
330
14D
100
AcDbEntity
  8
Sketch Geometry(DIN)
  6
Continuous
 62
     7
370
    18
100
AcDbLine
 10
107.2676023428579
 20
129.533943808766
 30
0.0
 11
102.2772726392172
 21
129.533943808766
 31
0.0
  0
LINE
  5
18E
330
14D
100
AcDbEntity
  8
Sketch Geometry(DIN)
  6
Continuous
 62
     7
370
    18
100
AcDbLine
 10
104.708542955785
 20
126.4474596613701
 30
0.0
 11
104.0880947590273
 21
127.1813622833059
 31
0.0
  0
LINE
  5
18F
330
14D
100
AcDbEntity
  8
Sketch Geometry(DIN)
  6
Continuous
 62
     7
370
    18
100
AcDbLine
 10
103.7344894971573
 20
125.9871380380973
 30
0.0
 11
104.8419687591776
 21
125.9871380380973
 31
0.0
  0
LINE
  5
190
330
14D
100
AcDbEntity
  8
Sketch Geometry(DIN)
  6
Continuous
 62
     7
370
    18
100
AcDbLine
 10
103.8679153005499
 20
126.4474596613701
 30
0.0
 11
103.7344894971573
 21
126.4474596613701
 31
0.0
  0
LINE
  5
191
330
14D
100
AcDbEntity
  8
Sketch Geometry(DIN)
  6
Continuous
 62
     7
370
    18
100
AcDbLine
 10
103.7344894971573
 20
126.4474596613701
 30
0.0
 11
103.7344894971573
 21
125.9871380380973
 31
0.0
  0
LINE
  5
192
330
14D
100
AcDbEntity
  8
Sketch Geometry(DIN)
  6
Continuous
 62
     7
370
    18
100
AcDbLine
 10
103.5810229403762
 20
125.9871380380973
 30
0.0
 11
103.5810229403762
 21
126.4474596613701
 31
0.0
  0
LINE
  5
193
330
14D
100
AcDbEntity
  8
Sketch Geometry(DIN)
  6
Continuous
 62
     7
370
    18
100
AcDbLine
 10
103.4275910711816
 20
126.9478367757306
 30
0.0
 11
103.8679153005499
 21
126.4474596613701
 31
0.0
  0
LINE
  5
194
330
14D
100
AcDbEntity
  8
Sketch Geometry(DIN)
  6
Continuous
 62
     7
370
    18
100
AcDbLine
 10
103.5810229403762
 20
126.4474596613701
 30
0.0
 11
103.4275910711816
 21
126.4474596613701
 31
0.0
  0
LINE
  5
195
330
14D
100
AcDbEntity
  8
Sketch Geometry(DIN)
  6
Continuous
 62
     7
370
    18
100
AcDbLine
 10
103.4275910711816
 20
126.4474596613701
 30
0.0
 11
103.4275910711816
 21
126.9478367757306
 31
0.0
  0
LINE
  5
196
330
14D
100
AcDbEntity
  8
Sketch Geometry(DIN)
  6
Continuous
 62
     7
370
    18
100
AcDbLine
 10
102.420185497654
 20
125.9871380380973
 30
0.0
 11
103.5810229403762
 21
125.9871380380973
 31
0.0
  0
LINE
  5
197
330
14D
100
AcDbEntity
  8
Sketch Geometry(DIN)
  6
Continuous
 62
     7
370
    18
100
AcDbLine
 10
102.420185497654
 20
126.4474596613701
 30
0.0
 11
102.420185497654
 21
125.9871380380973
 31
0.0
  0
LINE
  5
198
330
14D
100
AcDbEntity
  8
Sketch Geometry(DIN)
  6
Continuous
 62
     7
370
    18
100
AcDbLine
 10
102.6403649561314
 20
126.4474596613701
 30
0.0
 11
102.420185497654
 21
126.4474596613701
 31
0.0
  0
LINE
  5
199
330
14D
100
AcDbEntity
  8
Sketch Geometry(DIN)
  6
Continuous
 62
     7
370
    18
100
AcDbLine
 10
102.6403649561314
 20
127.6550386275736
 30
0.0
 11
102.6403649561314
 21
126.4474596613701
 31
0.0
  0
LINE
  5
19A
330
14D
100
AcDbEntity
  8
Sketch Geometry(DIN)
  6
Continuous
 62
     7
370
    18
100
AcDbLine
 10
102.2772726392172
 20
129.533943808766
 30
0.0
 11
102.2772726392172
 21
124.5367536102683
 31
0.0
  0
LINE
  5
19B
330
14D
100
AcDbEntity
  8
Sketch Geometry(DIN)
  6
Continuous
 62
     7
370
    18
100
AcDbLine
 10
102.420185497654
 20
127.6550386275736
 30
0.0
 11
102.6403649561314
 21
127.6550386275736
 31
0.0
  0
LINE
  5
19C
330
14D
100
AcDbEntity
  8
Sketch Geometry(DIN)
  6
Continuous
 62
     7
370
    18
100
AcDbLine
 10
101.0907923978064
 20
127.656746991233
 30
0.0
 11
101.2509102993947
 21
127.656746991233
 31
0.0
  0
LINE
  5
19D
330
14D
100
AcDbEntity
  8
Sketch Geometry(DIN)
  6
Continuous
 62
     7
370
    18
100
AcDbLine
 10
101.0907923978064
 20
128.0770651547993
 30
0.0
 11
101.0907923978064
 21
127.656746991233
 31
0.0
  0
LINE
  5
19E
330
14D
100
AcDbEntity
  8
Sketch Geometry(DIN)
  6
Continuous
 62
     7
370
    18
100
AcDbLine
 10
101.6845398244714
 20
127.656746991233
 30
0.0
 11
101.9113792996529
 21
127.656746991233
 31
0.0
  0
LINE
  5
19F
330
14D
100
AcDbEntity
  8
Sketch Geometry(DIN)
  6
Continuous
 62
     7
370
    18
100
AcDbLine
 10
101.9113792996529
 20
128.0770651547993
 30
0.0
 11
101.0907923978064
 21
128.0770651547993
 31
0.0
  0
LINE
  5
1A0
330
14D
100
AcDbEntity
  8
Sketch Geometry(DIN)
  6
Continuous
 62
     7
370
    18
100
AcDbLine
 10
101.9113792996529
 20
127.656746991233
 30
0.0
 11
101.9113792996529
 21
128.0770651547993
 31
0.0
  0
LINE
  5
1A1
330
14D
100
AcDbEntity
  8
Sketch Geometry(DIN)
  6
Continuous
 62
     7
370
    18
100
AcDbLine
 10
97.58174406558607
 20
127.6521422140591
 30
0.0
 11
97.58174406558607
 21
128.0791117224321
 31
0.0
  0
LINE
  5
1A2
330
14D
100
AcDbEntity
  8
Sketch Geometry(DIN)
  6
Continuous
 62
     7
370
    18
100
AcDbLine
 10
98.25965225020826
 20
127.6715672627784
 30
0.0
 11
98.08617962762557
 21
126.9844061643244
 31
0.0
  0
LINE
  5
1A3
330
14D
100
AcDbEntity
  8
Sketch Geometry(DIN)
  6
Continuous
 62
     7
370
    18
100
AcDbLine
 10
98.08617962762557
 20
126.9844061643244
 30
0.0
 11
98.43978488949515
 21
126.9844061643244
 31
0.0
  0
LINE
  5
1A4
330
14D
100
AcDbEntity
  8
Sketch Geometry(DIN)
  6
Continuous
 62
     7
370
    18
100
AcDbLine
 10
98.43978488949515
 20
126.9844061643244
 30
0.0
 11
98.25965225020826
 21
127.6715672627784
 31
0.0
  0
LINE
  5
1A5
330
14D
100
AcDbEntity
  8
Sketch Geometry(DIN)
  6
Continuous
 62
     7
370
    18
100
AcDbLine
 10
97.58174406558607
 20
128.0791117224321
 30
0.0
 11
99.11619283597984
 21
128.0791117224321
 31
0.0
  0
LINE
  5
1A6
330
14D
100
AcDbEntity
  8
Sketch Geometry(DIN)
  6
Continuous
 62
     7
370
    18
100
AcDbLine
 10
99.11619283597984
 20
127.6521422140591
 30
0.0
 11
98.94272021339663
 21
127.6521422140591
 31
0.0
  0
LINE
  5
1A7
330
14D
100
AcDbEntity
  8
Sketch Geometry(DIN)
  6
Continuous
 62
     7
370
    18
100
AcDbLine
 10
99.11619283597984
 20
128.0791117224321
 30
0.0
 11
99.11619283597984
 21
127.6587935588663
 31
0.0
  0
LINE
  5
1A8
330
14D
100
AcDbEntity
  8
Sketch Geometry(DIN)
  6
Continuous
 62
     7
370
    18
100
AcDbLine
 10
98.94272021339663
 20
127.6521422140591
 30
0.0
 11
99.30297682007381
 21
126.4512492802498
 31
0.0
  0
LINE
  5
1A9
330
14D
100
AcDbEntity
  8
Sketch Geometry(DIN)
  6
Continuous
 62
     7
370
    18
100
AcDbLine
 10
99.30297682007381
 20
126.4512492802498
 30
0.0
 11
99.49645550845856
 21
126.4512492802498
 31
0.0
  0
LINE
  5
1AA
330
14D
100
AcDbEntity
  8
Sketch Geometry(DIN)
  6
Continuous
 62
     7
370
    18
100
AcDbLine
 10
99.49645550845856
 20
126.4512492802498
 30
0.0
 11
99.49645550845856
 21
125.990927656977
 31
0.0
  0
LINE
  5
1AB
330
14D
100
AcDbEntity
  8
Sketch Geometry(DIN)
  6
Continuous
 62
     7
370
    18
100
AcDbLine
 10
99.49645550845856
 20
125.990927656977
 30
0.0
 11
98.36231883582909
 21
125.990927656977
 31
0.0
  0
LINE
  5
1AC
330
14D
100
AcDbEntity
  8
Sketch Geometry(DIN)
  6
Continuous
 62
     7
370
    18
100
AcDbLine
 10
98.36231883582909
 20
125.990927656977
 30
0.0
 11
98.36231883582909
 21
126.4512492802498
 31
0.0
  0
LINE
  5
1AD
330
14D
100
AcDbEntity
  8
Sketch Geometry(DIN)
  6
Continuous
 62
     7
370
    18
100
AcDbLine
 10
98.36231883582909
 20
126.4512492802498
 30
0.0
 11
98.56910888572512
 21
126.4512492802498
 31
0.0
  0
LINE
  5
1AE
330
14D
100
AcDbEntity
  8
Sketch Geometry(DIN)
  6
Continuous
 62
     7
370
    18
100
AcDbLine
 10
98.52241072172734
 20
126.6447279686345
 30
0.0
 11
98.00202754156533
 21
126.6447279686345
 31
0.0
  0
LINE
  5
1AF
330
14D
100
AcDbEntity
  8
Sketch Geometry(DIN)
  6
Continuous
 62
     7
370
    18
100
AcDbLine
 10
98.56910888572512
 20
126.4512492802498
 30
0.0
 11
98.52241072172734
 21
126.6447279686345
 31
0.0
  0
LINE
  5
1B0
330
14D
100
AcDbEntity
  8
Sketch Geometry(DIN)
  6
Continuous
 62
     7
370
    18
100
AcDbLine
 10
98.00202754156533
 20
126.6447279686345
 30
0.0
 11
97.94200067226325
 21
126.4512492802498
 31
0.0
  0
LINE
  5
1B1
330
14D
100
AcDbEntity
  8
Sketch Geometry(DIN)
  6
Continuous
 62
     7
370
    18
100
AcDbLine
 10
97.94200067226325
 20
126.4512492802498
 30
0.0
 11
98.12879332825378
 21
126.4512492802498
 31
0.0
  0
LINE
  5
1B2
330
14D
100
AcDbEntity
  8
Sketch Geometry(DIN)
  6
Continuous
 62
     7
370
    18
100
AcDbLine
 10
98.12879332825378
 20
126.4512492802498
 30
0.0
 11
98.12879332825378
 21
125.990927656977
 31
0.0
  0
LINE
  5
1B3
330
14D
100
AcDbEntity
  8
Sketch Geometry(DIN)
  6
Continuous
 62
     7
370
    18
100
AcDbLine
 10
97.36822462381239
 20
126.4512492802498
 30
0.0
 11
97.74852198387851
 21
127.6521422140591
 31
0.0
  0
LINE
  5
1B4
330
14D
100
AcDbEntity
  8
Sketch Geometry(DIN)
  6
Continuous
 62
     7
370
    18
100
AcDbLine
 10
97.22814747561304
 20
126.4512492802498
 30
0.0
 11
97.36822462381239
 21
126.4512492802498
 31
0.0
  0
LINE
  5
1B5
330
14D
100
AcDbEntity
  8
Sketch Geometry(DIN)
  6
Continuous
 62
     7
370
    18
100
AcDbLine
 10
98.12879332825378
 20
125.990927656977
 30
0.0
 11
97.22814747561304
 21
125.990927656977
 31
0.0
  0
LINE
  5
1B6
330
14D
100
AcDbEntity
  8
Sketch Geometry(DIN)
  6
Continuous
 62
     7
370
    18
100
AcDbLine
 10
97.22814747561304
 20
125.990927656977
 30
0.0
 11
97.22814747561304
 21
126.4512492802498
 31
0.0
  0
LINE
  5
1B7
330
14D
100
AcDbEntity
  8
Sketch Geometry(DIN)
  6
Continuous
 62
     7
370
    18
100
AcDbLine
 10
97.74852198387851
 20
127.6521422140591
 30
0.0
 11
97.58174406558607
 21
127.6521422140591
 31
0.0
  0
LINE
  5
1B8
330
14D
100
AcDbEntity
  8
Sketch Geometry(DIN)
  6
Continuous
 62
     7
370
    18
100
AcDbLine
 10
101.0707863320044
 20
125.9888377298602
 30
0.0
 11
101.6845398244714
 21
125.9888377298602
 31
0.0
  0
LINE
  5
1B9
330
14D
100
AcDbEntity
  8
Sketch Geometry(DIN)
  6
Continuous
 62
     7
370
    18
100
AcDbLine
 10
100.5036963159481
 20
125.9888377298602
 30
0.0
 11
100.5036963159481
 21
126.4492027126165
 31
0.0
  0
LINE
  5
1BA
330
14D
100
AcDbEntity
  8
Sketch Geometry(DIN)
  6
Continuous
 62
     7
370
    18
100
AcDbLine
 10
100.5036963159481
 20
126.4492027126165
 30
0.0
 11
100.330223693365
 21
126.4492027126165
 31
0.0
  0
LINE
  5
1BB
330
14D
100
AcDbEntity
  8
Sketch Geometry(DIN)
  6
Continuous
 62
     7
370
    18
100
AcDbLine
 10
99.64972261161467
 20
125.9888377298602
 30
0.0
 11
100.5036963159481
 21
125.9888377298602
 31
0.0
  0
LINE
  5
1BC
330
14D
100
AcDbEntity
  8
Sketch Geometry(DIN)
  6
Continuous
 62
     7
370
    18
100
AcDbLine
 10
99.85654734909727
 20
126.4492027126165
 30
0.0
 11
99.64972261161467
 21
126.4492027126165
 31
0.0
  0
LINE
  5
1BD
330
14D
100
AcDbEntity
  8
Sketch Geometry(DIN)
  6
Continuous
 62
     7
370
    18
100
AcDbLine
 10
99.64972261161467
 20
126.4492027126165
 30
0.0
 11
99.64972261161467
 21
125.9888377298602
 31
0.0
  0
LINE
  5
1BE
330
14D
100
AcDbEntity
  8
Sketch Geometry(DIN)
  6
Continuous
 62
     7
370
    18
100
AcDbLine
 10
101.6845398244714
 20
125.9888377298602
 30
0.0
 11
101.6845398244714
 21
127.656746991233
 31
0.0
  0
LINE
  5
1BF
330
14D
100
AcDbEntity
  8
Sketch Geometry(DIN)
  6
Continuous
 62
     7
370
    18
100
AcDbLine
 10
100.330223693365
 20
126.4492027126165
 30
0.0
 11
100.330223693365
 21
127.2364374995637
 31
0.0
  0
LINE
  5
1C0
330
14D
100
AcDbEntity
  8
Sketch Geometry(DIN)
  6
Continuous
 62
     7
370
    18
100
AcDbLine
 10
100.330223693365
 20
127.2364374995637
 30
0.0
 11
101.0707863320044
 21
125.9888377298602
 31
0.0
  0
LINE
  5
1C1
330
14D
100
AcDbEntity
  8
Sketch Geometry(DIN)
  6
Continuous
 62
     7
370
    18
100
AcDbLine
 10
101.2509102993947
 20
127.656746991233
 30
0.0
 11
101.2509102993947
 21
126.9762459094827
 31
0.0
  0
LINE
  5
1C2
330
14D
100
AcDbEntity
  8
Sketch Geometry(DIN)
  6
Continuous
 62
     7
370
    18
100
AcDbLine
 10
99.85654734909727
 20
127.656746991233
 30
0.0
 11
99.85654734909727
 21
126.4492027126165
 31
0.0
  0
LINE
  5
1C3
330
14D
100
AcDbEntity
  8
Sketch Geometry(DIN)
  6
Continuous
 62
     7
370
    18
100
AcDbLine
 10
101.2509102993947
 20
126.9762459094827
 30
0.0
 11
100.5904152834459
 21
128.0770651547993
 31
0.0
  0
LINE
  5
1C4
330
14D
100
AcDbEntity
  8
Sketch Geometry(DIN)
  6
Continuous
 62
     7
370
    18
100
AcDbLine
 10
99.64972261161467
 20
127.656746991233
 30
0.0
 11
99.85654734909727
 21
127.656746991233
 31
0.0
  0
LINE
  5
1C5
330
14D
100
AcDbEntity
  8
Sketch Geometry(DIN)
  6
Continuous
 62
     7
370
    18
100
AcDbLine
 10
100.5904152834459
 20
128.0770651547993
 30
0.0
 11
99.64972261161467
 21
128.0770651547993
 31
0.0
  0
LINE
  5
1C6
330
14D
100
AcDbEntity
  8
Sketch Geometry(DIN)
  6
Continuous
 62
     7
370
    18
100
AcDbLine
 10
99.64972261161467
 20
128.0770651547993
 30
0.0
 11
99.64972261161467
 21
127.656746991233
 31
0.0
  0
LINE
  5
1C7
330
14D
100
AcDbEntity
  8
Sketch Geometry(DIN)
  6
Continuous
 62
     7
370
    18
100
AcDbLine
 10
99.11619283597984
 20
127.6587935588663
 30
0.0
 11
99.11619283597984
 21
127.6521422140591
 31
0.0
  0
LINE
  5
1C8
330
14D
100
AcDbEntity
  8
Sketch Geometry(DIN)
  6
Continuous
 62
     7
370
    18
100
AcDbLine
 10
97.0742993553746
 20
124.5375774404595
 30
0.0
 11
102.0646377309122
 21
124.5375774404595
 31
0.0
  0
LINE
  5
1C9
330
14D
100
AcDbEntity
  8
Sketch Geometry(DIN)
  6
Continuous
 62
     7
370
    18
100
AcDbLine
 10
97.0742993553746
 20
129.533943808766
 30
0.0
 11
97.0742993553746
 21
124.5375774404595
 31
0.0
  0
LINE
  5
1CA
330
14D
100
AcDbEntity
  8
Sketch Geometry(DIN)
  6
Continuous
 62
     7
370
    18
100
AcDbLine
 10
102.0646377309122
 20
129.533943808766
 30
0.0
 11
97.0742993553746
 21
129.533943808766
 31
0.0
  0
LINE
  5
1CB
330
14D
100
AcDbEntity
  8
Sketch Geometry(DIN)
  6
Continuous
 62
     7
370
    18
100
AcDbLine
 10
96.56334252697977
 20
127.3913696068958
 30
0.0
 11
96.55003116546891
 21
127.3313167219032
 31
0.0
  0
LINE
  5
1CC
330
14D
100
AcDbEntity
  8
Sketch Geometry(DIN)
  6
Continuous
 62
     7
370
    18
100
AcDbLine
 10
96.55003116546891
 20
127.3313167219032
 30
0.0
 11
96.52999041207989
 21
127.2779498693052
 31
0.0
  0
LINE
  5
1CD
330
14D
100
AcDbEntity
  8
Sketch Geometry(DIN)
  6
Continuous
 62
     7
370
    18
100
AcDbLine
 10
96.52999041207989
 20
127.2779498693052
 30
0.0
 11
96.50332432957416
 21
127.2178969843126
 31
0.0
  0
LINE
  5
1CE
330
14D
100
AcDbEntity
  8
Sketch Geometry(DIN)
  6
Continuous
 62
     7
370
    18
100
AcDbLine
 10
96.46996354277778
 20
127.1711901484184
 30
0.0
 11
96.42991672358721
 21
127.1245180001106
 31
0.0
  0
LINE
  5
1CF
330
14D
100
AcDbEntity
  8
Sketch Geometry(DIN)
  6
Continuous
 62
     7
370
    18
100
AcDbLine
 10
96.42991672358721
 20
127.1245180001106
 30
0.0
 11
96.38990459198366
 21
127.0778111642164
 31
0.0
  0
LINE
  5
1D0
330
14D
100
AcDbEntity
  8
Sketch Geometry(DIN)
  6
Continuous
 62
     7
370
    18
100
AcDbLine
 10
96.38990459198366
 20
127.0778111642164
 30
0.0
 11
96.34319775608933
 21
127.0444590493165
 31
0.0
  0
LINE
  5
1D1
330
14D
100
AcDbEntity
  8
Sketch Geometry(DIN)
  6
Continuous
 62
     7
370
    18
100
AcDbLine
 10
96.34319775608933
 20
127.0444590493165
 30
0.0
 11
96.28983957538782
 21
127.0177582792238
 31
0.0
  0
LINE
  5
1D2
330
14D
100
AcDbEntity
  8
Sketch Geometry(DIN)
  6
Continuous
 62
     7
370
    18
100
AcDbLine
 10
96.28983957538782
 20
127.0177582792238
 30
0.0
 11
96.2631388052952
 21
126.9844061643244
 31
0.0
  0
LINE
  5
1D3
330
14D
100
AcDbEntity
  8
Sketch Geometry(DIN)
  6
Continuous
 62
     7
370
    18
100
AcDbLine
 10
96.50332432957416
 20
127.2178969843126
 30
0.0
 11
96.46996354277778
 21
127.1711901484184
 31
0.0
  0
LINE
  5
1D4
330
14D
100
AcDbEntity
  8
Sketch Geometry(DIN)
  6
Continuous
 62
     7
370
    18
100
AcDbLine
 10
96.50332432957416
 20
126.4440169183604
 30
0.0
 11
96.70346303466747
 21
126.4440169183604
 31
0.0
  0
LINE
  5
1D5
330
14D
100
AcDbEntity
  8
Sketch Geometry(DIN)
  6
Continuous
 62
     7
370
    18
100
AcDbLine
 10
96.2631388052952
 20
126.9844061643244
 30
0.0
 11
96.50332432957416
 21
126.4440169183604
 31
0.0
  0
LINE
  5
1D6
330
14D
100
AcDbEntity
  8
Sketch Geometry(DIN)
  6
Continuous
 62
     7
370
    18
100
AcDbLine
 10
96.70346303466747
 20
126.4440169183604
 30
0.0
 11
96.70346303466775
 21
125.9836519356054
 31
0.0
  0
LINE
  5
1D7
330
14D
100
AcDbEntity
  8
Sketch Geometry(DIN)
  6
Continuous
 62
     7
370
    18
100
AcDbLine
 10
96.70346303466775
 20
125.9836519356054
 30
0.0
 11
95.96959510031894
 21
125.9836519356054
 31
0.0
  0
LINE
  5
1D8
330
14D
100
AcDbEntity
  8
Sketch Geometry(DIN)
  6
Continuous
 62
     7
370
    18
100
AcDbLine
 10
96.12302696951054
 20
128.0652106719415
 30
0.0
 11
96.18307985450318
 21
128.0385185737453
 31
0.0
  0
LINE
  5
1D9
330
14D
100
AcDbEntity
  8
Sketch Geometry(DIN)
  6
Continuous
 62
     7
370
    18
100
AcDbLine
 10
96.0029472152188
 20
128.0718706886462
 30
0.0
 11
96.0630001002108
 21
128.0718706886462
 31
0.0
  0
LINE
  5
1DA
330
14D
100
AcDbEntity
  8
Sketch Geometry(DIN)
  6
Continuous
 62
     7
370
    18
100
AcDbLine
 10
96.0630001002108
 20
128.0718706886462
 30
0.0
 11
96.12302696951054
 21
128.0652106719415
 31
0.0
  0
LINE
  5
1DB
330
14D
100
AcDbEntity
  8
Sketch Geometry(DIN)
  6
Continuous
 62
     7
370
    18
100
AcDbLine
 10
95.74951970459785
 20
127.5380373966253
 30
0.0
 11
95.73616498360301
 21
127.5580781500138
 31
0.0
  0
LINE
  5
1DC
330
14D
100
AcDbEntity
  8
Sketch Geometry(DIN)
  6
Continuous
 62
     7
370
    18
100
AcDbLine
 10
91.85580337634981
 20
129.533943808766
 30
0.0
 11
91.85580337634981
 21
124.5375774404595
 31
0.0
  0
LINE
  5
1DD
330
14D
100
AcDbEntity
  8
Sketch Geometry(DIN)
  6
Continuous
 62
     7
370
    18
100
AcDbLine
 10
91.85580337634981
 20
124.5375774404595
 30
0.0
 11
96.85282778428158
 21
124.5375774404595
 31
0.0
  0
LINE
  5
1DE
330
14D
100
AcDbEntity
  8
Sketch Geometry(DIN)
  6
Continuous
 62
     7
370
    18
100
AcDbLine
 10
96.85282778428158
 20
124.5375774404595
 30
0.0
 11
96.85282778428158
 21
129.533943808766
 31
0.0
  0
LINE
  5
1DF
330
14D
100
AcDbEntity
  8
Sketch Geometry(DIN)
  6
Continuous
 62
     7
370
    18
100
AcDbLine
 10
96.85282778428158
 20
129.533943808766
 30
0.0
 11
91.85580337634981
 21
129.533943808766
 31
0.0
  0
LINE
  5
1E0
330
14D
100
AcDbEntity
  8
Sketch Geometry(DIN)
  6
Continuous
 62
     7
370
    18
100
AcDbLine
 10
94.51517059313244
 20
127.6515611969787
 30
0.0
 11
94.29502582224202
 21
127.6515611969787
 31
0.0
  0
LINE
  5
1E1
330
14D
100
AcDbEntity
  8
Sketch Geometry(DIN)
  6
Continuous
 62
     7
370
    18
100
AcDbLine
 10
94.29502582224202
 20
127.6515611969787
 30
0.0
 11
94.29502582224202
 21
128.0718706886462
 31
0.0
  0
LINE
  5
1E2
330
14D
100
AcDbEntity
  8
Sketch Geometry(DIN)
  6
Continuous
 62
     7
370
    18
100
AcDbLine
 10
94.29502582224202
 20
128.0718706886462
 30
0.0
 11
96.0029472152188
 21
128.0718706886462
 31
0.0
  0
LINE
  5
1E3
330
14D
100
AcDbEntity
  8
Sketch Geometry(DIN)
  6
Continuous
 62
     7
370
    18
100
AcDbLine
 10
95.75617104940505
 20
127.5180313308232
 30
0.0
 11
95.74951970459785
 21
127.5380373966253
 31
0.0
  0
LINE
  5
1E4
330
14D
100
AcDbEntity
  8
Sketch Geometry(DIN)
  6
Continuous
 62
     7
370
    18
100
AcDbLine
 10
95.63609996700732
 20
127.65814316661
 30
0.0
 11
95.61609390120526
 21
127.6648031833137
 31
0.0
  0
LINE
  5
1E5
330
14D
100
AcDbEntity
  8
Sketch Geometry(DIN)
  6
Continuous
 62
     7
370
    18
100
AcDbLine
 10
95.73616498360301
 20
127.5580781500138
 30
0.0
 11
95.72951363879589
 21
127.5780842158158
 31
0.0
  0
LINE
  5
1E6
330
14D
100
AcDbEntity
  8
Sketch Geometry(DIN)
  6
Continuous
 62
     7
370
    18
100
AcDbLine
 10
95.72951363879589
 20
127.5780842158158
 30
0.0
 11
95.7094989010973
 21
127.5980902816174
 31
0.0
  0
LINE
  5
1E7
330
14D
100
AcDbEntity
  8
Sketch Geometry(DIN)
  6
Continuous
 62
     7
370
    18
100
AcDbLine
 10
95.67614678619788
 20
127.638137100808
 30
0.0
 11
95.66280073710002
 21
127.6447971175117
 31
0.0
  0
LINE
  5
1E8
330
14D
100
AcDbEntity
  8
Sketch Geometry(DIN)
  6
Continuous
 62
     7
370
    18
100
AcDbLine
 10
95.7094989010973
 20
127.5980902816174
 30
0.0
 11
95.69615285199944
 21
127.6180963474194
 31
0.0
  0
LINE
  5
1E9
330
14D
100
AcDbEntity
  8
Sketch Geometry(DIN)
  6
Continuous
 62
     7
370
    18
100
AcDbLine
 10
95.69615285199944
 20
127.6180963474194
 30
0.0
 11
95.67614678619788
 21
127.638137100808
 31
0.0
  0
LINE
  5
1EA
330
14D
100
AcDbEntity
  8
Sketch Geometry(DIN)
  6
Continuous
 62
     7
370
    18
100
AcDbLine
 10
105.032169470591
 20
127.6500869745293
 30
0.0
 11
105.2323081756798
 21
127.6500869745293
 31
0.0
  0
LINE
  5
1EB
330
14D
100
AcDbEntity
  8
Sketch Geometry(DIN)
  6
Continuous
 62
     7
370
    18
100
AcDbLine
 10
96.18307985450318
 20
128.0385185737453
 30
0.0
 11
96.22978669039742
 21
128.0185125079437
 31
0.0
  0
LINE
  5
1EC
330
14D
100
AcDbEntity
  8
Sketch Geometry(DIN)
  6
Continuous
 62
     7
370
    18
100
AcDbLine
 10
96.22978669039742
 20
128.0185125079437
 30
0.0
 11
96.28983957538967
 21
127.9918117378511
 31
0.0
  0
LINE
  5
1ED
330
14D
100
AcDbEntity
  8
Sketch Geometry(DIN)
  6
Continuous
 62
     7
370
    18
100
AcDbLine
 10
96.28983957538967
 20
127.9918117378511
 30
0.0
 11
96.32985170699658
 21
127.9584509510524
 31
0.0
  0
LINE
  5
1EE
330
14D
100
AcDbEntity
  8
Sketch Geometry(DIN)
  6
Continuous
 62
     7
370
    18
100
AcDbLine
 10
96.32985170699658
 20
127.9584509510524
 30
0.0
 11
96.38320988769462
 21
127.9317588528585
 31
0.0
  0
LINE
  5
1EF
330
14D
100
AcDbEntity
  8
Sketch Geometry(DIN)
  6
Continuous
 62
     7
370
    18
100
AcDbLine
 10
96.38320988769462
 20
127.9317588528585
 30
0.0
 11
96.42326537878004
 21
127.8917467212558
 31
0.0
  0
LINE
  5
1F0
330
14D
100
AcDbEntity
  8
Sketch Geometry(DIN)
  6
Continuous
 62
     7
370
    18
100
AcDbLine
 10
96.42326537878004
 20
127.8917467212558
 30
0.0
 11
96.46327751038359
 21
127.8383798686578
 31
0.0
  0
LINE
  5
1F1
330
14D
100
AcDbEntity
  8
Sketch Geometry(DIN)
  6
Continuous
 62
     7
370
    18
100
AcDbLine
 10
96.5700372312704
 20
127.4514224918879
 30
0.0
 11
96.56334252697977
 21
127.3913696068958
 31
0.0
  0
LINE
  5
1F2
330
14D
100
AcDbEntity
  8
Sketch Geometry(DIN)
  6
Continuous
 62
     7
370
    18
100
AcDbLine
 10
96.57003723127045
 20
127.5114406892935
 30
0.0
 11
96.5700372312704
 21
127.4514224918879
 31
0.0
  0
LINE
  5
1F3
330
14D
100
AcDbEntity
  8
Sketch Geometry(DIN)
  6
Continuous
 62
     7
370
    18
100
AcDbLine
 10
96.57003723127047
 20
127.5714935742857
 30
0.0
 11
96.57003723127045
 21
127.5114406892935
 31
0.0
  0
LINE
  5
1F4
330
14D
100
AcDbEntity
  8
Sketch Geometry(DIN)
  6
Continuous
 62
     7
370
    18
100
AcDbLine
 10
96.56334252697977
 20
127.6315551311748
 30
0.0
 11
96.57003723127047
 21
127.5714935742857
 31
0.0
  0
LINE
  5
1F5
330
14D
100
AcDbEntity
  8
Sketch Geometry(DIN)
  6
Continuous
 62
     7
370
    18
100
AcDbLine
 10
96.54333646117775
 20
127.6916080161674
 30
0.0
 11
96.56334252697977
 21
127.6315551311748
 31
0.0
  0
LINE
  5
1F6
330
14D
100
AcDbEntity
  8
Sketch Geometry(DIN)
  6
Continuous
 62
     7
370
    18
100
AcDbLine
 10
96.52333039537621
 20
127.7382801644747
 30
0.0
 11
96.54333646117775
 21
127.6916080161674
 31
0.0
  0
LINE
  5
1F7
330
14D
100
AcDbEntity
  8
Sketch Geometry(DIN)
  6
Continuous
 62
     7
370
    18
100
AcDbLine
 10
96.48996960857983
 20
127.7916730327631
 30
0.0
 11
96.52333039537621
 21
127.7382801644747
 31
0.0
  0
LINE
  5
1F8
330
14D
100
AcDbEntity
  8
Sketch Geometry(DIN)
  6
Continuous
 62
     7
370
    18
100
AcDbLine
 10
96.46327751038359
 20
127.8383798686578
 30
0.0
 11
96.48996960857983
 21
127.7916730327631
 31
0.0
  0
LINE
  5
1F9
330
14D
100
AcDbEntity
  8
Sketch Geometry(DIN)
  6
Continuous
 62
     7
370
    18
100
AcDbLine
 10
93.22251164791238
 20
126.4511799050758
 30
0.0
 11
93.22251164791238
 21
126.864838051938
 31
0.0
  0
LINE
  5
1FA
330
14D
100
AcDbEntity
  8
Sketch Geometry(DIN)
  6
Continuous
 62
     7
370
    18
100
AcDbLine
 10
93.40264428719919
 20
126.4511799050758
 30
0.0
 11
93.22251164791238
 21
126.4511799050758
 31
0.0
  0
LINE
  5
1FB
330
14D
100
AcDbEntity
  8
Sketch Geometry(DIN)
  6
Continuous
 62
     7
370
    18
100
AcDbLine
 10
92.3685726311659
 20
127.6520728388851
 30
0.0
 11
92.3685726311659
 21
126.4511799050758
 31
0.0
  0
LINE
  5
1FC
330
14D
100
AcDbEntity
  8
Sketch Geometry(DIN)
  6
Continuous
 62
     7
370
    18
100
AcDbLine
 10
92.16839923849006
 20
127.6520728388851
 30
0.0
 11
92.3685726311659
 21
127.6520728388851
 31
0.0
  0
LINE
  5
1FD
330
14D
100
AcDbEntity
  8
Sketch Geometry(DIN)
  6
Continuous
 62
     7
370
    18
100
AcDbLine
 10
93.22251164791238
 20
126.864838051938
 30
0.0
 11
93.63616979477448
 21
126.864838051938
 31
0.0
  0
LINE
  5
1FE
330
14D
100
AcDbEntity
  8
Sketch Geometry(DIN)
  6
Continuous
 62
     7
370
    18
100
AcDbLine
 10
93.63616979477448
 20
126.864838051938
 30
0.0
 11
93.63616979477448
 21
127.2250946586152
 31
0.0
  0
LINE
  5
1FF
330
14D
100
AcDbEntity
  8
Sketch Geometry(DIN)
  6
Continuous
 62
     7
370
    18
100
AcDbLine
 10
93.22251164791238
 20
127.2250946586152
 30
0.0
 11
93.22251164791238
 21
127.6520728388851
 31
0.0
  0
LINE
  5
200
330
14D
100
AcDbEntity
  8
Sketch Geometry(DIN)
  6
Continuous
 62
     7
370
    18
100
AcDbLine
 10
92.16839923849006
 20
128.0857370515493
 30
0.0
 11
92.16839923849006
 21
127.6520728388851
 31
0.0
  0
LINE
  5
201
330
14D
100
AcDbEntity
  8
Sketch Geometry(DIN)
  6
Continuous
 62
     7
370
    18
100
AcDbLine
 10
94.12985220484376
 20
128.0857370515493
 30
0.0
 11
92.16839923849006
 21
128.0857370515493
 31
0.0
  0
LINE
  5
202
330
14D
100
AcDbEntity
  8
Sketch Geometry(DIN)
  6
Continuous
 62
     7
370
    18
100
AcDbLine
 10
93.22251164791238
 20
127.6520728388851
 30
0.0
 11
93.67618192637806
 21
127.6520728388851
 31
0.0
  0
LINE
  5
203
330
14D
100
AcDbEntity
  8
Sketch Geometry(DIN)
  6
Continuous
 62
     7
370
    18
100
AcDbLine
 10
93.67618192637806
 20
127.6520728388851
 30
0.0
 11
93.67618192637806
 21
127.4319280679947
 31
0.0
  0
LINE
  5
204
330
14D
100
AcDbEntity
  8
Sketch Geometry(DIN)
  6
Continuous
 62
     7
370
    18
100
AcDbLine
 10
94.51517059313244
 20
126.4440169183623
 30
0.0
 11
94.51517059313244
 21
127.6515611969787
 31
0.0
  0
LINE
  5
205
330
14D
100
AcDbEntity
  8
Sketch Geometry(DIN)
  6
Continuous
 62
     7
370
    18
100
AcDbLine
 10
93.67618192637806
 20
127.4319280679947
 30
0.0
 11
94.12985220484376
 21
127.4319280679947
 31
0.0
  0
LINE
  5
206
330
14D
100
AcDbEntity
  8
Sketch Geometry(DIN)
  6
Continuous
 62
     7
370
    18
100
AcDbLine
 10
94.12985220484376
 20
127.4319280679947
 30
0.0
 11
94.12985220484376
 21
128.0857370515493
 31
0.0
  0
LINE
  5
207
330
14D
100
AcDbEntity
  8
Sketch Geometry(DIN)
  6
Continuous
 62
     7
370
    18
100
AcDbLine
 10
93.63616979477448
 20
127.2250946586152
 30
0.0
 11
93.22251164791238
 21
127.2250946586152
 31
0.0
  0
LINE
  5
208
330
14D
100
AcDbEntity
  8
Sketch Geometry(DIN)
  6
Continuous
 62
     7
370
    18
100
AcDbLine
 10
92.3685726311659
 20
126.4511799050758
 30
0.0
 11
92.16839923849006
 21
126.4511799050758
 31
0.0
  0
LINE
  5
209
330
14D
100
AcDbEntity
  8
Sketch Geometry(DIN)
  6
Continuous
 62
     7
370
    18
100
AcDbLine
 10
93.40264428719919
 20
125.990858281803
 30
0.0
 11
93.40264428719919
 21
126.4511799050758
 31
0.0
  0
LINE
  5
20A
330
14D
100
AcDbEntity
  8
Sketch Geometry(DIN)
  6
Continuous
 62
     7
370
    18
100
AcDbLine
 10
92.16839923849006
 20
125.990858281803
 30
0.0
 11
93.40264428719919
 21
125.990858281803
 31
0.0
  0
LINE
  5
20B
330
14D
100
AcDbEntity
  8
Sketch Geometry(DIN)
  6
Continuous
 62
     7
370
    18
100
AcDbLine
 10
92.16839923849006
 20
126.4511799050758
 30
0.0
 11
92.16839923849006
 21
125.990858281803
 31
0.0
  0
LINE
  5
20C
330
14D
100
AcDbEntity
  8
Sketch Geometry(DIN)
  6
Continuous
 62
     7
370
    18
100
AcDbLine
 10
95.66280073710002
 20
127.6447971175117
 30
0.0
 11
95.63609996700732
 21
127.65814316661
 31
0.0
  0
LINE
  5
20D
330
14D
100
AcDbEntity
  8
Sketch Geometry(DIN)
  6
Continuous
 62
     7
370
    18
100
AcDbLine
 10
95.74285968789418
 20
127.3178926257348
 30
0.0
 11
95.74951970459785
 21
127.3378986915364
 31
0.0
  0
LINE
  5
20E
330
14D
100
AcDbEntity
  8
Sketch Geometry(DIN)
  6
Continuous
 62
     7
370
    18
100
AcDbLine
 10
95.74951970459785
 20
127.3378986915364
 30
0.0
 11
95.76286575369572
 21
127.3645994616291
 31
0.0
  0
LINE
  5
20F
330
14D
100
AcDbEntity
  8
Sketch Geometry(DIN)
  6
Continuous
 62
     7
370
    18
100
AcDbLine
 10
95.76286575369572
 20
127.3645994616291
 30
0.0
 11
95.76952577039946
 21
127.3846055274307
 31
0.0
  0
LINE
  5
210
330
14D
100
AcDbEntity
  8
Sketch Geometry(DIN)
  6
Continuous
 62
     7
370
    18
100
AcDbLine
 10
95.76952577039946
 20
127.3846055274307
 30
0.0
 11
95.78287181949779
 21
127.4179663142276
 31
0.0
  0
LINE
  5
211
330
14D
100
AcDbEntity
  8
Sketch Geometry(DIN)
  6
Continuous
 62
     7
370
    18
100
AcDbLine
 10
95.78287181949779
 20
127.4179663142276
 30
0.0
 11
95.78287181949779
 21
127.4379723800291
 31
0.0
  0
LINE
  5
212
330
14D
100
AcDbEntity
  8
Sketch Geometry(DIN)
  6
Continuous
 62
     7
370
    18
100
AcDbLine
 10
95.78287181949779
 20
127.4379723800291
 30
0.0
 11
95.78287181949779
 21
127.4646644782248
 31
0.0
  0
LINE
  5
213
330
14D
100
AcDbEntity
  8
Sketch Geometry(DIN)
  6
Continuous
 62
     7
370
    18
100
AcDbLine
 10
95.78287181949779
 20
127.4646644782248
 30
0.0
 11
95.76952577039946
 21
127.4846792159234
 31
0.0
  0
LINE
  5
214
330
14D
100
AcDbEntity
  8
Sketch Geometry(DIN)
  6
Continuous
 62
     7
370
    18
100
AcDbLine
 10
95.76952577039946
 20
127.4846792159234
 30
0.0
 11
95.75617104940505
 21
127.5180313308232
 31
0.0
  0
LINE
  5
215
330
14D
100
AcDbEntity
  8
Sketch Geometry(DIN)
  6
Continuous
 62
     7
370
    18
100
AcDbLine
 10
95.61609390120526
 20
127.6648031833137
 30
0.0
 11
95.58939313111256
 21
127.6781579043086
 31
0.0
  0
LINE
  5
216
330
14D
100
AcDbEntity
  8
Sketch Geometry(DIN)
  6
Continuous
 62
     7
370
    18
100
AcDbLine
 10
95.58939313111256
 20
127.6781579043086
 30
0.0
 11
95.56938706531102
 21
127.6781579043086
 31
0.0
  0
LINE
  5
217
330
14D
100
AcDbEntity
  8
Sketch Geometry(DIN)
  6
Continuous
 62
     7
370
    18
100
AcDbLine
 10
95.56938706531102
 20
127.6781579043086
 30
0.0
 11
95.549380999509
 21
127.6781579043086
 31
0.0
  0
LINE
  5
218
330
14D
100
AcDbEntity
  8
Sketch Geometry(DIN)
  6
Continuous
 62
     7
370
    18
100
AcDbLine
 10
95.549380999509
 20
127.6781579043086
 30
0.0
 11
95.29584942613215
 21
127.6781579043086
 31
0.0
  0
LINE
  5
219
330
14D
100
AcDbEntity
  8
Sketch Geometry(DIN)
  6
Continuous
 62
     7
370
    18
100
AcDbLine
 10
95.29584942613215
 20
127.6781579043086
 30
0.0
 11
95.29584942613215
 21
127.191126839046
 31
0.0
  0
LINE
  5
21A
330
14D
100
AcDbEntity
  8
Sketch Geometry(DIN)
  6
Continuous
 62
     7
370
    18
100
AcDbLine
 10
95.29584942613215
 20
127.191126839046
 30
0.0
 11
95.549380999509
 21
127.191126839046
 31
0.0
  0
LINE
  5
21B
330
14D
100
AcDbEntity
  8
Sketch Geometry(DIN)
  6
Continuous
 62
     7
370
    18
100
AcDbLine
 10
95.549380999509
 20
127.191126839046
 30
0.0
 11
95.56938706531102
 21
127.191126839046
 31
0.0
  0
LINE
  5
21C
330
14D
100
AcDbEntity
  8
Sketch Geometry(DIN)
  6
Continuous
 62
     7
370
    18
100
AcDbLine
 10
95.72951363879589
 20
127.2978865599328
 30
0.0
 11
95.74285968789418
 21
127.3178926257348
 31
0.0
  0
LINE
  5
21D
330
14D
100
AcDbEntity
  8
Sketch Geometry(DIN)
  6
Continuous
 62
     7
370
    18
100
AcDbLine
 10
95.7094989010973
 20
127.2778458065443
 30
0.0
 11
95.72951363879589
 21
127.2978865599328
 31
0.0
  0
LINE
  5
21E
330
14D
100
AcDbEntity
  8
Sketch Geometry(DIN)
  6
Continuous
 62
     7
370
    18
100
AcDbLine
 10
95.67614678619788
 20
127.2444936916444
 30
0.0
 11
95.69615285199944
 21
127.2645344450329
 31
0.0
  0
LINE
  5
21F
330
14D
100
AcDbEntity
  8
Sketch Geometry(DIN)
  6
Continuous
 62
     7
370
    18
100
AcDbLine
 10
95.66280073710002
 20
127.2378336749407
 30
0.0
 11
95.67614678619788
 21
127.2444936916444
 31
0.0
  0
LINE
  5
220
330
14D
100
AcDbEntity
  8
Sketch Geometry(DIN)
  6
Continuous
 62
     7
370
    18
100
AcDbLine
 10
95.63609996700732
 20
127.2178276091387
 30
0.0
 11
95.66280073710002
 21
127.2378336749407
 31
0.0
  0
LINE
  5
221
330
14D
100
AcDbEntity
  8
Sketch Geometry(DIN)
  6
Continuous
 62
     7
370
    18
100
AcDbLine
 10
95.61609390120526
 20
127.2044815600408
 30
0.0
 11
95.63609996700732
 21
127.2178276091387
 31
0.0
  0
LINE
  5
222
330
14D
100
AcDbEntity
  8
Sketch Geometry(DIN)
  6
Continuous
 62
     7
370
    18
100
AcDbLine
 10
95.59608783540372
 20
127.1977868557497
 30
0.0
 11
95.61609390120526
 21
127.2044815600408
 31
0.0
  0
LINE
  5
223
330
14D
100
AcDbEntity
  8
Sketch Geometry(DIN)
  6
Continuous
 62
     7
370
    18
100
AcDbLine
 10
95.56938706531102
 20
127.191126839046
 30
0.0
 11
95.59608783540372
 21
127.1977868557497
 31
0.0
  0
LINE
  5
224
330
14D
100
AcDbEntity
  8
Sketch Geometry(DIN)
  6
Continuous
 62
     7
370
    18
100
AcDbLine
 10
95.69615285199944
 20
127.2645344450329
 30
0.0
 11
95.7094989010973
 21
127.2778458065443
 31
0.0
  0
LINE
  5
225
330
14D
100
AcDbEntity
  8
Sketch Geometry(DIN)
  6
Continuous
 62
     7
370
    18
100
AcDbLine
 10
94.29502582224202
 20
125.9836519356054
 30
0.0
 11
94.29502582224202
 21
126.4440169183623
 31
0.0
  0
LINE
  5
226
330
14D
100
AcDbEntity
  8
Sketch Geometry(DIN)
  6
Continuous
 62
     7
370
    18
100
AcDbLine
 10
94.29502582224202
 20
126.4440169183623
 30
0.0
 11
94.51517059313244
 21
126.4440169183623
 31
0.0
  0
LINE
  5
227
330
14D
100
AcDbEntity
  8
Sketch Geometry(DIN)
  6
Continuous
 62
     7
370
    18
100
AcDbLine
 10
95.48922405176057
 20
125.9836519356054
 30
0.0
 11
94.29502582224202
 21
125.9836519356054
 31
0.0
  0
LINE
  5
228
330
14D
100
AcDbEntity
  8
Sketch Geometry(DIN)
  6
Continuous
 62
     7
370
    18
100
AcDbLine
 10
95.30244006766654
 20
126.8776464434394
 30
0.0
 11
95.30244006766654
 21
126.4440169183623
 31
0.0
  0
LINE
  5
229
330
14D
100
AcDbEntity
  8
Sketch Geometry(DIN)
  6
Continuous
 62
     7
370
    18
100
AcDbLine
 10
95.30244006766654
 20
126.4440169183623
 30
0.0
 11
95.48922405176057
 21
126.4440169183623
 31
0.0
  0
LINE
  5
22A
330
14D
100
AcDbEntity
  8
Sketch Geometry(DIN)
  6
Continuous
 62
     7
370
    18
100
AcDbLine
 10
95.58263772354912
 20
126.8776464434394
 30
0.0
 11
95.30244006766654
 21
126.8776464434394
 31
0.0
  0
LINE
  5
22B
330
14D
100
AcDbEntity
  8
Sketch Geometry(DIN)
  6
Continuous
 62
     7
370
    18
100
AcDbLine
 10
95.48922405176057
 20
126.4440169183623
 30
0.0
 11
95.48922405176057
 21
125.9836519356054
 31
0.0
  0
LINE
  5
22C
330
14D
100
AcDbEntity
  8
Sketch Geometry(DIN)
  6
Continuous
 62
     7
370
    18
100
AcDbLine
 10
95.96959510031894
 20
125.9836519356054
 30
0.0
 11
95.58263772354912
 21
126.8776464434394
 31
0.0
  0
LINE
  5
22D
330
14D
100
AcDbEntity
  8
Sketch Geometry(DIN)
  6
Continuous
 62
     7
370
    18
100
AcDbLine
 10
106.5065913716826
 20
126.6493414177054
 30
0.0
 11
106.5065913716826
 21
126.4492027126165
 31
0.0
  0
LINE
  5
22E
330
14D
100
AcDbEntity
  8
Sketch Geometry(DIN)
  6
Continuous
 62
     7
370
    18
100
AcDbLine
 10
106.9469156010504
 20
126.6493414177054
 30
0.0
 11
106.5065913716826
 21
126.6493414177054
 31
0.0
  0
LINE
  5
22F
330
14D
100
AcDbEntity
  8
Sketch Geometry(ISO)
  6
Continuous
 62
     7
370
    25
100
AcDbLine
 10
89.59999999999999
 20
110.2741925130958
 30
0.0
 11
154.6
 21
110.2741925130957
 31
0.0
  0
MTEXT
  5
230
330
14D
100
AcDbEntity
  8
Symbols(ISO)
 62
     7
100
AcDbMText
 10
155.6
 20
144.5241925130958
 30
0.0
 40
1.49859994649887
 41
23.77876622243585
 71
     4
 72
     1
  1
Revision Description:
  7
Text__1.5mm
 73
     1
 44
1.0
  0
MTEXT
  5
231
330
14D
100
AcDbEntity
  8
Symbols(ISO)
 62
     7
100
AcDbMText
 10
91.09999999999997
 20
105.2368704004262
 30
0.0
 40
1.299999952316284
 41
62.47629165649414
 71
     4
 72
     1
  1
\fArial|b0|i0;These drawings and specifications are the property of NIRO-Plan AG and shall not be reproduced, copied or transfered to any third party without the prior written permission of NIRO-Plan AG, Aarburg, Switzerland
  7
Text__1.3mm
 73
     2
 44
0.9442214369773864
  0
MTEXT
  5
232
330
14D
100
AcDbEntity
  8
Symbols(ISO)
 62
     7
100
AcDbMText
 10
264.6
 20
108.7741925130957
 30
0.0
 40
1.49859994649887
 41
6.68705082292643
 71
     4
 72
     1
  1
\fArial|b0|i0;Rev.
  7
Text__1.5mm
 73
     1
 44
1.0
  0
MTEXT
  5
233
330
14D
100
AcDbEntity
  8
Symbols(ISO)
 62
     7
100
AcDbMText
 10
275.6
 20
108.7741925130957
 30
0.0
 40
1.49859994649887
 41
6.68705082292643
 71
     4
 72
     1
  1
\fArial|b0|i0;Sheet
  7
Text__1.5mm
 73
     1
 44
1.0
  0
MTEXT
  5
234
330
14D
100
AcDbEntity
  8
Symbols(ISO)
 62
     7
100
AcDbMText
 10
205.6
 20
108.7741925130957
 30
0.0
 40
1.49859994649887
 41
6.629477143287658
 71
     4
 72
     1
  1
\fArial|b0|i0;Format
  7
Text__1.5mm
 73
     1
 44
1.0
  0
MTEXT
  5
235
330
14D
100
AcDbEntity
  8
Symbols(ISO)
 62
     7
100
AcDbMText
 10
248.1
 20
137.0241925130958
 30
0.0
 40
1.49859994649887
 41
9.419934749603271
 71
     4
 72
     1
  1
EAN / UPC
  7
Text__1.5mm
 73
     1
 44
1.0
  0
MTEXT
  5
236
330
14D
100
AcDbEntity
  8
Symbols(ISO)
 62
     7
100
AcDbMText
 10
205.6
 20
144.3687682948396
 30
0.0
 40
1.49859994649887
 41
8.959617614746093
 71
     4
 72
     1
  1
Projection
  7
Text__1.5mm
 73
     1
 44
1.0
  0
MTEXT
  5
237
330
14D
100
AcDbEntity
  8
Symbols(ISO)
 62
     7
100
AcDbMText
 10
248.1
 20
144.3687682948396
 30
0.0
 40
1.49859994649887
 41
41.00067758866362
 71
     4
 72
     1
  1
Local part number (producing site)
  7
Text__1.5mm
 73
     1
 44
1.0
  0
MTEXT
  5
238
330
14D
100
AcDbEntity
  8
Symbols(ISO)
 62
     7
100
AcDbMText
 10
218.1
 20
108.7741925130957
 30
0.0
 40
1.49859994649887
 41
13.84170077910116
 71
     4
 72
     1
  1
Drawing number
  7
Text__1.5mm
 73
     1
 44
1.0
  0
MTEXT
  5
239
330
14D
100
AcDbEntity
  8
Symbols(ISO)
 62
     7
100
AcDbMText
 10
205.6
 20
137.0241925130958
 30
0.0
 40
1.49859994649887
 41
16.71329739486093
 71
     4
 72
     1
  1
WS global number
  7
Text__1.5mm
 73
     1
 44
1.0
  0
MTEXT
  5
23A
330
14D
100
AcDbEntity
  8
Symbols(ISO)
 62
     7
100
AcDbMText
 10
283.1
 20
108.7741925130957
 30
0.0
 40
1.49859994649887
 41
6.68705082292643
 71
     4
 72
     1
  1
Sheets
  7
Text__1.5mm
 73
     1
 44
1.0
  0
MTEXT
  5
23B
330
14D
100
AcDbEntity
  8
Symbols(ISO)
 62
     7
100
AcDbMText
 10
91.09999999999997
 20
116.4337326665147
 30
0.0
 40
2.000000029802322
 41
51.58130403925817
 71
     4
 72
     1
  1
\fArial|b0|i0;\H2.0000;Franke Washroom Systems\PE-Mail: ws-info.int@franke.com\PInternet: www.franke.com
  7
Text__1.3mm
 73
     2
 44
0.9442214369773864
  0
MTEXT
  5
23C
330
14D
100
AcDbEntity
  8
Symbols(ISO)
 62
     7
100
AcDbMText
 10
90.6
 20
144.5241925130958
 30
0.0
 40
1.49859994649887
 41
8.959617614746093
 71
     4
 72
     1
  1
Drawn by
  7
Text__1.5mm
 73
     1
 44
1.0
  0
MTEXT
  5
23D
330
14D
100
AcDbEntity
  8
Symbols(ISO)
 62
     7
100
AcDbMText
 10
90.6
 20
137.0241925130958
 30
0.0
 40
1.49859994649887
 41
9.318276643753051
 71
     4
 72
     1
  1
Revised by
  7
Text__1.5mm
 73
     1
 44
1.0
  0
MTEXT
  5
23E
330
14D
100
AcDbEntity
  8
Symbols(ISO)
 62
     7
100
AcDbMText
 10
135.6
 20
137.0241925130958
 30
0.0
 40
1.49859994649887
 41
12.0866436953507
 71
     4
 72
     1
  1
Revision date
  7
Text__1.5mm
 73
     1
 44
1.0
  0
MTEXT
  5
23F
330
14D
100
AcDbEntity
  8
Symbols(ISO)
 62
     7
100
AcDbMText
 10
135.6
 20
144.5241925130958
 30
0.0
 40
1.49859994649887
 41
12.73810746214334
 71
     4
 72
     1
  1
Creation date
  7
Text__1.5mm
 73
     1
 44
1.0
  0
MTEXT
  5
240
330
14D
100
AcDbEntity
  8
Symbols(ISO)
 62
     7
100
AcDbMText
 10
110.6
 20
144.5241925130958
 30
0.0
 40
1.49859994649887
 41
10.88769435882568
 71
     4
 72
     1
  1
Departement
  7
Text__1.5mm
 73
     1
 44
1.0
  0
MTEXT
  5
241
330
14D
100
AcDbEntity
  8
Symbols(ISO)
 62
     7
100
AcDbMText
 10
110.6
 20
137.0241925130958
 30
0.0
 40
1.49859994649887
 41
13.53864551460898
 71
     4
 72
     1
  1
Departement
  7
Text__1.5mm
 73
     1
 44
1.0
  0
ATTDEF
  5
243
102
{ACAD_XDICTIONARY
360
F73
102
}
330
14D
100
AcDbEntity
  8
Symbols(ISO)
 62
     7
100
AcDbText
 10
206.0884038199181
 20
123.5258978336961
 30
0.0
 40
5.0
  1
BS 303
  7
Text Style20
100
AcDbAttributeDefinition
  3
Title
  2
Title_001
 70
     0
  0
ATTDEF
  5
245
102
{ACAD_XDICTIONARY
360
F76
102
}
330
14D
100
AcDbEntity
  8
Symbols(ISO)
 62
     7
100
AcDbText
 10
206.4090040960222
 20
117.7741925428981
 30
0.0
 40
3.499999940395355
  1
cleaner sink CNS
  7
Text Style9
100
AcDbAttributeDefinition
  3
Auxiliary_Remark1
  2
Auxiliary_Remark1_001
 70
     0
  0
ATTDEF
  5
246
102
{ACAD_XDICTIONARY
360
F79
102
}
330
14D
100
AcDbEntity
  8
Symbols(ISO)
 62
     7
100
AcDbText
 10
206.6
 20
111.2741925428982
 30
0.0
 40
3.499999940395355
  1

  7
Text Style9
 11
206.6
 21
113.0241925130958
 31
0.0
100
AcDbAttributeDefinition
  3
Auxiliary_Remark2
  2
Auxiliary_Remark2
 70
     0
 74
     2
  0
ATTDEF
  5
248
102
{ACAD_XDICTIONARY
360
F7C
102
}
330
14D
100
AcDbEntity
  8
Symbols(ISO)
 62
     7
100
AcDbText
 10
247.8442019099591
 20
139.7750451733959
 30
0.0
 40
2.5
  1
BS303
  7
Text Style38
100
AcDbAttributeDefinition
  3
Part_number
  2
Part_number_001
 70
     0
  0
ATTDEF
  5
249
102
{ACAD_XDICTIONARY
360
F7F
102
}
330
14D
100
AcDbEntity
  8
Symbols(ISO)
 62
     7
100
AcDbText
 10
217.8100954979536
 20
101.8082989251012
 30
0.0
 40
5.0
  1
0093-129585
  7
Text Style20
100
AcDbAttributeDefinition
  3
Document_Number
  2
Document_Number_001
 70
     0
  0
ATTDEF
  5
24B
102
{ACAD_XDICTIONARY
360
F82
102
}
330
14D
100
AcDbEntity
  8
Symbols(ISO)
 62
     7
100
AcDbText
 10
155.6
 20
136.0241924832935
 30
0.0
 40
2.000000029802322
  1

  7
Text Style40
 11
155.6
 21
138.0241925130958
 31
0.0
100
AcDbAttributeDefinition
  3
Revision_Memo_1
  2
Revision_Memo_1
 70
     0
 74
     3
  0
ATTDEF
  5
24C
102
{ACAD_XDICTIONARY
360
F85
102
}
330
14D
100
AcDbEntity
  8
Symbols(ISO)
 62
     7
100
AcDbText
 10
264.6
 20
101.7741925130957
 30
0.0
 40
5.0
  1

  7
Text Style20
 11
264.6
 21
104.2741925130957
 31
0.0
100
AcDbAttributeDefinition
  3
Revision_Index_1
  2
Revision_Index_1
 70
     0
 74
     2
  0
ATTDEF
  5
24D
102
{ACAD_XDICTIONARY
360
F88
102
}
330
14D
100
AcDbEntity
  8
Symbols(ISO)
 62
     7
100
AcDbText
 10
205.6
 20
101.7741925130958
 30
0.0
 40
5.0
  1
A4
  7
Text Style20
100
AcDbAttributeDefinition
  3
Sheet Size
  2
Sheet_Size_001
 70
     0
  0
ATTDEF
  5
24E
102
{ACAD_XDICTIONARY
360
F8B
102
}
330
14D
100
AcDbEntity
  8
Symbols(ISO)
 62
     7
100
AcDbText
 10
90.47448840194965
 20
140.0248746264449
 30
0.0
 40
2.000000029802322
  1
SS136
  7
Text Style40
100
AcDbAttributeDefinition
  3
Drawn_By
  2
Drawn_By_001
 70
     0
  0
ATTDEF
  5
24F
102
{ACAD_XDICTIONARY
360
F8E
102
}
330
14D
100
AcDbEntity
  8
Symbols(ISO)
 62
     7
100
AcDbText
 10
90.6
 20
132.5241924981947
 30
0.0
 40
2.000000029802322
  1

  7
Text Style40
 11
90.6
 21
133.5241925130958
 31
0.0
100
AcDbAttributeDefinition
  3
Modified_By
  2
Modified_By
 70
     0
 74
     2
  0
ATTDEF
  5
250
102
{ACAD_XDICTIONARY
360
F91
102
}
330
14D
100
AcDbEntity
  8
Symbols(ISO)
 62
     7
100
AcDbText
 10
135.2957708003779
 20
140.0248746264449
 30
0.0
 40
2.000000029802322
  1
13/10/2010
  7
Text Style40
100
AcDbAttributeDefinition
  3
Drawn_Date
  2
Drawn_Date_001
 70
     0
  0
ATTDEF
  5
251
102
{ACAD_XDICTIONARY
360
F94
102
}
330
14D
100
AcDbEntity
  8
Symbols(ISO)
 62
     7
100
AcDbText
 10
135.5181446099671
 20
132.5241924981947
 30
0.0
 40
2.000000029802322
  1
24/02/2010
  7
Text Style40
100
AcDbAttributeDefinition
  3
Modified_Date
  2
Modified_Date_001
 70
     0
  0
ATTDEF
  5
252
102
{ACAD_XDICTIONARY
360
F97
102
}
330
14D
100
AcDbEntity
  8
Symbols(ISO)
 62
     7
100
AcDbText
 10
155.6
 20
140.0241924981946
 30
0.0
 40
2.000000029802322
  1

  7
Text Style40
 11
155.6
 21
141.0241925130958
 31
0.0
100
AcDbAttributeDefinition
  3
Revision_Titel_1
  2
Revision_Titel_1
 70
     0
 74
     2
  0
ATTDEF
  5
253
102
{ACAD_XDICTIONARY
360
F9A
102
}
330
14D
100
AcDbEntity
  8
Symbols(ISO)
 62
     7
100
AcDbText
 10
276.8366984993179
 20
101.7639605894941
 30
0.0
 40
5.0
  1
1
 41
0.9
  7
Text__5.0mm
100
AcDbAttributeDefinition
  3
Sheet number
  2
Sheet_number_001
 70
     0
  0
ATTDEF
  5
254
102
{ACAD_XDICTIONARY
360
F9D
102
}
330
14D
100
AcDbEntity
  8
Symbols(ISO)
 62
     7
100
AcDbText
 10
284.2139154160983
 20
101.7741925130957
 30
0.0
 40
5.0
  1
4
 41
0.9
  7
Text__5.0mm
100
AcDbAttributeDefinition
  3
Number of sheets
  2
Number_of_sheets_001
 70
     0
  0
ATTDEF
  5
255
102
{ACAD_XDICTIONARY
360
FA0
102
}
330
14D
100
AcDbEntity
  8
Symbols(ISO)
 62
     7
100
AcDbText
 10
205.6
 20
132.2741925130958
 30
0.0
 40
2.5
  1

  7
Text Style38
 11
205.6
 21
133.5241925130958
 31
0.0
100
AcDbAttributeDefinition
  3
FUN
  2
FUN
 70
     0
 74
     2
  0
ATTDEF
  5
256
102
{ACAD_XDICTIONARY
360
FA3
102
}
330
14D
100
AcDbEntity
  8
Symbols(ISO)
 62
     7
100
AcDbText
 10
247.9345839017736
 20
132.2912457190985
 30
0.0
 40
2.5
  1
7612979000351
  7
Text Style38
100
AcDbAttributeDefinition
  3
EAN
  2
EAN_001
 70
     0
  0
ATTDEF
  5
257
102
{ACAD_XDICTIONARY
360
FA6
102
}
330
14D
100
AcDbEntity
  8
Symbols(ISO)
 62
     7
100
AcDbText
 10
110.370804907908
 20
132.8011365678058
 30
0.0
 40
2.000000029802322
  1
FSI-Marketing
  7
Text Style40
100
AcDbAttributeDefinition
  3
Departement
  2
Departement_001
 70
     0
  0
ATTDEF
  5
258
102
{ACAD_XDICTIONARY
360
FA9
102
}
330
14D
100
AcDbEntity
  8
Symbols(ISO)
 62
     7
100
AcDbText
 10
110.370804907908
 20
140.3011365678057
 30
0.0
 40
2.000000029802322
  1
FSI-Marketing
  7
Text Style40
100
AcDbAttributeDefinition
  3
Departement
  2
Departement_001
 70
     0
  0
ENDBLK
  5
14F
330
14D
100
AcDbEntity
  8
0
100
AcDbBlockEnd
  0
BLOCK
  5
26F
330
26E
100
AcDbEntity
  8
0
100
AcDbBlockBegin
  2
Borders Verkauf Border_85x80
 70
     0
 10
0.0
 20
0.0
 30
0.0
  3
Borders Verkauf Border_85x80
  1

  0
LINE
  5
271
330
26E
100
AcDbEntity
  8
Phantom Lines(ISO)
100
AcDbLine
 10
20.00000000000014
 20
228.0000000000001
 30
0.0
 11
190.0
 21
228.0000000000001
 31
0.0
  0
LINE
  5
272
330
26E
100
AcDbEntity
  8
Phantom Lines(ISO)
100
AcDbLine
 10
190.0
 20
228.0000000000001
 30
0.0
 11
190.0
 21
68.00000000000004
 31
0.0
  0
LINE
  5
273
330
26E
100
AcDbEntity
  8
Phantom Lines(ISO)
100
AcDbLine
 10
190.0
 20
68.00000000000003
 30
0.0
 11
20.0
 21
68.00000000000003
 31
0.0
  0
LINE
  5
274
330
26E
100
AcDbEntity
  8
Phantom Lines(ISO)
100
AcDbLine
 10
20.0
 20
68.00000000000003
 30
0.0
 11
20.00000000000014
 21
228.0000000000001
 31
0.0
  0
LINE
  5
275
330
26E
100
AcDbEntity
  8
Sketch Geometry(ISO)
100
AcDbLine
 10
204.9999999999999
 20
292.0
 30
0.0
 11
5.0
 21
292.0
 31
0.0
  0
LINE
  5
276
330
26E
100
AcDbEntity
  8
Sketch Geometry(ISO)
100
AcDbLine
 10
4.999999999999982
 20
292.0
 30
0.0
 11
5.000000000000007
 21
5.0
 31
0.0
  0
LINE
  5
277
330
26E
100
AcDbEntity
  8
Sketch Geometry(ISO)
100
AcDbLine
 10
5.000000000000007
 20
5.0
 30
0.0
 11
205.0
 21
5.0
 31
0.0
  0
LINE
  5
278
330
26E
100
AcDbEntity
  8
Sketch Geometry(ISO)
100
AcDbLine
 10
205.0
 20
5.0
 30
0.0
 11
204.9999999999999
 21
292.0
 31
0.0
  0
ENDBLK
  5
270
330
26E
100
AcDbEntity
  8
0
100
AcDbBlockEnd
  0
BLOCK
  5
2AE
330
2AD
100
AcDbEntity
  8
0
100
AcDbBlockBegin
  2
*D11
 70
     1
 10
0.0
 20
0.0
 30
0.0
  3
*D11
  1

  0
LINE
  5
38C
330
2AD
100
AcDbEntity
  8
Bemaßungen(DIN)
  6
Continuous
 62
     7
370
    25
100
AcDbLine
 10
190.9158608818446
 20
977.1040932907427
 30
0.0
 11
190.9158608818446
 21
1090.800519991157
 31
0.0
  0
LINE
  5
38D
330
2AD
100
AcDbEntity
  8
Bemaßungen(DIN)
  6
Continuous
 62
     7
370
    25
100
AcDbLine
 10
690.9158608818447
 20
977.1040932907423
 30
0.0
 11
690.9158608818447
 21
1090.800519991157
 31
0.0
  0
LINE
  5
38E
330
2AD
100
AcDbEntity
  8
Bemaßungen(DIN)
  6
Continuous
 62
     7
370
    25
100
AcDbLine
 10
222.9158608818447
 20
1074.800519991157
 30
0.0
 11
401.1494224327813
 21
1074.800519991157
 31
0.0
  0
LINE
  5
38F
330
2AD
100
AcDbEntity
  8
Bemaßungen(DIN)
  6
Continuous
 62
     7
370
    25
100
AcDbLine
 10
658.9158608818447
 20
1074.800519991157
 30
0.0
 11
480.6822993309081
 21
1074.800519991157
 31
0.0
  0
SOLID
  5
390
330
2AD
100
AcDbEntity
  8
Bemaßungen(DIN)
  6
Continuous
 62
     7
100
AcDbTrace
 10
222.9158608818447
 20
1080.13385332449
 30
0.0
 11
222.9158608818447
 21
1069.467186657824
 31
0.0
 12
190.9158608818446
 22
1074.800519991157
 32
0.0
 13
190.9158608818446
 23
1074.800519991157
 33
0.0
  0
SOLID
  5
391
330
2AD
100
AcDbEntity
  8
Bemaßungen(DIN)
  6
Continuous
 62
     7
100
AcDbTrace
 10
658.9158608818447
 20
1080.13385332449
 30
0.0
 11
658.9158608818447
 21
1069.467186657824
 31
0.0
 12
690.9158608818447
 22
1074.800519991157
 32
0.0
 13
690.9158608818447
 23
1074.800519991157
 33
0.0
  0
MTEXT
  5
392
330
2AD
100
AcDbEntity
  8
Bemaßungen(DIN)
  6
Continuous
 62
     7
370
    30
100
AcDbMText
 10
409.1494224327814
 20
1074.800519991157
 30
0.0
 40
32.0
 41
0.0
 71
     4
 72
     1
  1
\A1;500
  7
Text__4.0mm
 73
     1
 44
1.0
  0
POINT
  5
393
330
2AD
100
AcDbEntity
  8
Defpoints
  6
Continuous
 62
     0
100
AcDbPoint
 10
190.9158608818446
 20
961.1040932907426
 30
0.0
  0
POINT
  5
394
330
2AD
100
AcDbEntity
  8
Defpoints
  6
Continuous
 62
     0
100
AcDbPoint
 10
690.9158608818447
 20
961.1040932907423
 30
0.0
  0
POINT
  5
395
330
2AD
100
AcDbEntity
  8
Defpoints
  6
Continuous
 62
     0
100
AcDbPoint
 10
690.9158608818447
 20
1074.800519991157
 30
0.0
  0
ENDBLK
  5
2AF
330
2AD
100
AcDbEntity
  8
0
100
AcDbBlockEnd
  0
BLOCK
  5
398
330
397
100
AcDbEntity
  8
0
100
AcDbBlockBegin
  2
*D12
 70
     1
 10
0.0
 20
0.0
 30
0.0
  3
*D12
  1

  0
LINE
  5
476
330
397
100
AcDbEntity
  8
Bemaßungen(DIN)
  6
Continuous
 62
     7
370
    25
100
AcDbLine
 10
585.9158608818446
 20
873.1540932907414
 30
0.0
 11
585.9158608818446
 21
1038.444345929036
 31
0.0
  0
LINE
  5
477
330
397
100
AcDbEntity
  8
Bemaßungen(DIN)
  6
Continuous
 62
     7
370
    25
100
AcDbLine
 10
690.9158608818447
 20
977.1040932907423
 30
0.0
 11
690.9158608818447
 21
1038.444345929036
 31
0.0
  0
LINE
  5
478
330
397
100
AcDbEntity
  8
Bemaßungen(DIN)
  6
Continuous
 62
     7
370
    25
100
AcDbLine
 10
658.9158608818447
 20
1022.444345929036
 30
0.0
 11
617.9158608818446
 21
1022.444345929036
 31
0.0
  0
LINE
  5
479
330
397
100
AcDbEntity
  8
Bemaßungen(DIN)
  6
Continuous
 62
     7
370
    25
100
AcDbLine
 10
585.9158608818446
 20
1022.444345929036
 30
0.0
 11
550.1607672390153
 21
1022.444345929036
 31
0.0
  0
SOLID
  5
47A
330
397
100
AcDbEntity
  8
Bemaßungen(DIN)
  6
Continuous
 62
     7
100
AcDbTrace
 10
658.9158608818447
 20
1027.777679262369
 30
0.0
 11
658.9158608818447
 21
1017.111012595703
 31
0.0
 12
690.9158608818447
 22
1022.444345929036
 32
0.0
 13
690.9158608818447
 23
1022.444345929036
 33
0.0
  0
SOLID
  5
47B
330
397
100
AcDbEntity
  8
Bemaßungen(DIN)
  6
Continuous
 62
     7
100
AcDbTrace
 10
617.9158608818446
 20
1027.777679262369
 30
0.0
 11
617.9158608818446
 21
1017.111012595703
 31
0.0
 12
585.9158608818446
 22
1022.444345929036
 32
0.0
 13
585.9158608818446
 23
1022.444345929036
 33
0.0
  0
MTEXT
  5
47C
330
397
100
AcDbEntity
  8
Bemaßungen(DIN)
  6
Continuous
 62
     7
370
    30
100
AcDbMText
 10
481.0246160618445
 20
1022.444345929036
 30
0.0
 40
32.0
 41
0.0
 71
     4
 72
     1
  1
\A1;105
  7
Text__4.0mm
 73
     1
 44
1.0
  0
POINT
  5
47D
330
397
100
AcDbEntity
  8
Defpoints
  6
Continuous
 62
     0
100
AcDbPoint
 10
585.9158608818446
 20
857.1540932907414
 30
0.0
  0
POINT
  5
47E
330
397
100
AcDbEntity
  8
Defpoints
  6
Continuous
 62
     0
100
AcDbPoint
 10
690.9158608818447
 20
961.1040932907423
 30
0.0
  0
POINT
  5
47F
330
397
100
AcDbEntity
  8
Defpoints
  6
Continuous
 62
     0
100
AcDbPoint
 10
690.9158608818447
 20
1022.444345929036
 30
0.0
  0
ENDBLK
  5
399
330
397
100
AcDbEntity
  8
0
100
AcDbBlockEnd
  0
BLOCK
  5
482
330
481
100
AcDbEntity
  8
0
100
AcDbBlockBegin
  2
*D13
 70
     1
 10
0.0
 20
0.0
 30
0.0
  3
*D13
  1

  0
LINE
  5
573
330
481
100
AcDbEntity
  8
Bemaßungen(DIN)
  6
Continuous
 62
     7
370
    25
100
AcDbLine
 10
601.9158608818446
 20
857.1540932907414
 30
0.0
 11
827.1434533164921
 21
857.1540932907412
 31
0.0
  0
LINE
  5
574
330
481
100
AcDbEntity
  8
Bemaßungen(DIN)
  6
Continuous
 62
     7
370
    25
100
AcDbLine
 10
696.9158608818445
 20
962.1540932907413
 30
0.0
 11
827.1434533164921
 21
962.1540932907411
 31
0.0
  0
LINE
  5
575
330
481
100
AcDbEntity
  8
Bemaßungen(DIN)
  6
Continuous
 62
     7
370
    25
100
AcDbLine
 10
811.1434533164921
 20
930.1540932907411
 30
0.0
 11
811.1434533164921
 21
889.1540932907412
 31
0.0
  0
LINE
  5
576
330
481
100
AcDbEntity
  8
Bemaßungen(DIN)
  6
Continuous
 62
     7
370
    25
100
AcDbLine
 10
811.1434533164921
 20
857.1540932907412
 30
0.0
 11
811.1434533164921
 21
808.6601905739556
 31
0.0
  0
LINE
  5
577
330
481
100
AcDbEntity
  8
Bemaßungen(DIN)
  6
Continuous
 62
     7
370
    25
100
AcDbLine
 10
811.1434533164921
 20
808.6601905739556
 30
0.0
 11
779.1434533164921
 21
808.6601905739556
 31
0.0
  0
SOLID
  5
578
330
481
100
AcDbEntity
  8
Bemaßungen(DIN)
  6
Continuous
 62
     7
100
AcDbTrace
 10
805.8101199831588
 20
930.1540932907411
 30
0.0
 11
816.4767866498255
 21
930.1540932907411
 31
0.0
 12
811.1434533164921
 22
962.1540932907411
 32
0.0
 13
811.1434533164921
 23
962.1540932907411
 33
0.0
  0
SOLID
  5
579
330
481
100
AcDbEntity
  8
Bemaßungen(DIN)
  6
Continuous
 62
     7
100
AcDbTrace
 10
805.8101199831588
 20
889.1540932907412
 30
0.0
 11
816.4767866498255
 21
889.1540932907412
 31
0.0
 12
811.1434533164921
 22
857.1540932907412
 32
0.0
 13
811.1434533164921
 23
857.1540932907412
 33
0.0
  0
MTEXT
  5
57A
330
481
100
AcDbEntity
  8
Bemaßungen(DIN)
  6
Continuous
 62
     7
370
    30
100
AcDbMText
 10
710.007302139321
 20
808.6601905739557
 30
0.0
 40
32.0
 41
0.0
 71
     4
 72
     1
  1
\A1;105
  7
Text__4.0mm
 73
     1
 44
1.0
  0
POINT
  5
57B
330
481
100
AcDbEntity
  8
Defpoints
  6
Continuous
 62
     0
100
AcDbPoint
 10
585.9158608818446
 20
857.1540932907414
 30
0.0
  0
POINT
  5
57C
330
481
100
AcDbEntity
  8
Defpoints
  6
Continuous
 62
     0
100
AcDbPoint
 10
680.9158608818445
 20
962.1540932907413
 30
0.0
  0
POINT
  5
57D
330
481
100
AcDbEntity
  8
Defpoints
  6
Continuous
 62
     0
100
AcDbPoint
 10
811.1434533164921
 20
962.1540932907411
 30
0.0
  0
ENDBLK
  5
483
330
481
100
AcDbEntity
  8
0
100
AcDbBlockEnd
  0
BLOCK
  5
580
330
57F
100
AcDbEntity
  8
0
100
AcDbBlockBegin
  2
*D14
 70
     1
 10
0.0
 20
0.0
 30
0.0
  3
*D14
  1

  0
LINE
  5
664
330
57F
100
AcDbEntity
  8
Bemaßungen(DIN)
  6
Continuous
 62
     7
370
    25
100
AcDbLine
 10
696.9158608818445
 20
962.1540932907413
 30
0.0
 11
884.6078140796121
 21
962.1540932907411
 31
0.0
  0
LINE
  5
665
330
57F
100
AcDbEntity
  8
Bemaßungen(DIN)
  6
Continuous
 62
     7
370
    25
100
AcDbLine
 10
705.8951502037261
 20
562.1540932907426
 30
0.0
 11
884.6078140796121
 21
562.1540932907424
 31
0.0
  0
LINE
  5
666
330
57F
100
AcDbEntity
  8
Bemaßungen(DIN)
  6
Continuous
 62
     7
370
    25
100
AcDbLine
 10
868.6078140796123
 20
930.1540932907411
 30
0.0
 11
868.6078140796123
 21
786.4924288978357
 31
0.0
  0
LINE
  5
667
330
57F
100
AcDbEntity
  8
Bemaßungen(DIN)
  6
Continuous
 62
     7
370
    25
100
AcDbLine
 10
868.6078140796121
 20
594.1540932907424
 30
0.0
 11
868.6078140796121
 21
737.8157576836476
 31
0.0
  0
SOLID
  5
668
330
57F
100
AcDbEntity
  8
Bemaßungen(DIN)
  6
Continuous
 62
     7
100
AcDbTrace
 10
863.2744807462788
 20
930.1540932907411
 30
0.0
 11
873.9411474129456
 21
930.1540932907411
 31
0.0
 12
868.6078140796123
 22
962.1540932907411
 32
0.0
 13
868.6078140796123
 23
962.1540932907411
 33
0.0
  0
SOLID
  5
669
330
57F
100
AcDbEntity
  8
Bemaßungen(DIN)
  6
Continuous
 62
     7
100
AcDbTrace
 10
863.2744807462787
 20
594.1540932907424
 30
0.0
 11
873.9411474129454
 21
594.1540932907424
 31
0.0
 12
868.6078140796121
 22
562.1540932907424
 32
0.0
 13
868.6078140796121
 23
562.1540932907424
 33
0.0
  0
MTEXT
  5
66A
330
57F
100
AcDbEntity
  8
Bemaßungen(DIN)
  6
Continuous
 62
     7
370
    30
100
AcDbMText
 10
836.2618394931043
 20
762.1540932907419
 30
0.0
 40
32.0
 41
0.0
 71
     4
 72
     1
  1
\A1;400
  7
Text__4.0mm
 73
     1
 44
1.0
  0
POINT
  5
66B
330
57F
100
AcDbEntity
  8
Defpoints
  6
Continuous
 62
     0
100
AcDbPoint
 10
680.9158608818445
 20
962.1540932907413
 30
0.0
  0
POINT
  5
66C
330
57F
100
AcDbEntity
  8
Defpoints
  6
Continuous
 62
     0
100
AcDbPoint
 10
689.895150203726
 20
562.1540932907426
 30
0.0
  0
POINT
  5
66D
330
57F
100
AcDbEntity
  8
Defpoints
  6
Continuous
 62
     0
100
AcDbPoint
 10
868.6078140796121
 20
562.1540932907424
 30
0.0
  0
ENDBLK
  5
581
330
57F
100
AcDbEntity
  8
0
100
AcDbBlockEnd
  0
BLOCK
  5
670
330
66F
100
AcDbEntity
  8
0
100
AcDbBlockBegin
  2
*D15
 70
     1
 10
0.0
 20
0.0
 30
0.0
  3
*D15
  1

  0
LINE
  5
710
330
66F
100
AcDbEntity
  8
Bemaßungen(DIN)
  6
Continuous
 62
     7
370
    25
100
AcDbLine
 10
542.0752404482724
 20
900.994713724301
 30
0.0
 11
519.4478234502996
 21
923.6221307222672
 31
0.0
  0
LINE
  5
711
330
66F
100
AcDbEntity
  8
Bemaßungen(DIN)
  6
Continuous
 62
     7
370
    25
100
AcDbLine
 10
629.756481315417
 20
813.3134728571819
 30
0.0
 11
790.6670880989902
 21
652.4028660736552
 31
0.0
  0
LINE
  5
712
330
66F
100
AcDbEntity
  8
Bemaßungen(DIN)
  6
Continuous
 62
     7
370
    25
100
AcDbLine
 10
564.7026574462452
 20
878.3672967263347
 30
0.0
 11
607.1290643174441
 21
835.9408898551482
 31
0.0
  0
SOLID
  5
713
330
66F
100
AcDbEntity
  8
Bemaßungen(DIN)
  6
Continuous
 62
     7
100
AcDbTrace
 10
545.8464766146001
 20
904.7659498906298
 30
0.0
 11
538.3040042819447
 21
897.2234775579721
 31
0.0
 12
564.7026574462452
 22
878.3672967263347
 32
0.0
 13
564.7026574462452
 23
878.3672967263347
 33
0.0
  0
SOLID
  5
714
330
66F
100
AcDbEntity
  8
Bemaßungen(DIN)
  6
Continuous
 62
     7
100
AcDbTrace
 10
633.5277174817446
 20
817.0847090235108
 30
0.0
 11
625.9852451490893
 21
809.5422366908531
 31
0.0
 12
607.1290643174441
 22
835.9408898551482
 32
0.0
 13
607.1290643174441
 23
835.9408898551482
 33
0.0
  0
MTEXT
  5
715
102
{ACAD_XDICTIONARY
360
1011
102
}
330
66F
100
AcDbEntity
  8
Bemaßungen(DIN)
  6
Continuous
 62
     7
370
    30
100
AcDbMText
 10
751.5938929150234
 20
727.16131916982
 30
0.0
 40
32.0
 41
0.0
 71
     4
 72
     1
  1
\A1;\U+220560
  7
Text__4.0mm
 11
0.70710678118665
 21
-0.7071067811864451
 31
0.0
 73
     1
 44
1.0
  0
POINT
  5
716
330
66F
100
AcDbEntity
  8
Defpoints
  6
Continuous
 62
     0
100
AcDbPoint
 10
607.1290643174441
 20
835.9408898551482
 30
0.0
  0
POINT
  5
717
330
66F
100
AcDbEntity
  8
Defpoints
  6
Continuous
 62
     0
100
AcDbPoint
 10
564.7026574462452
 20
878.3672967263347
 30
0.0
  0
ENDBLK
  5
671
330
66F
100
AcDbEntity
  8
0
100
AcDbBlockEnd
  0
BLOCK
  5
774
330
773
100
AcDbEntity
  8
0
100
AcDbBlockBegin
  2
*D16
 70
     1
 10
0.0
 20
0.0
 30
0.0
  3
*D16
  1

  0
LINE
  5
865
330
773
100
AcDbEntity
  8
Bemaßungen(DIN)
  6
Continuous
 62
     7
370
    25
100
AcDbLine
 10
704.4658608821036
 20
1634.972908225777
 30
0.0
 11
815.4790643816058
 21
1634.972908225777
 31
0.0
  0
LINE
  5
866
330
773
100
AcDbEntity
  8
Bemaßungen(DIN)
  6
Continuous
 62
     7
370
    25
100
AcDbLine
 10
703.4052007103239
 20
1604.972908225777
 30
0.0
 11
815.4790643816058
 21
1604.972908225777
 31
0.0
  0
LINE
  5
867
330
773
100
AcDbEntity
  8
Bemaßungen(DIN)
  6
Continuous
 62
     7
370
    25
100
AcDbLine
 10
799.4790643816059
 20
1666.972908225777
 30
0.0
 11
799.4790643816059
 21
1698.972908225777
 31
0.0
  0
LINE
  5
868
330
773
100
AcDbEntity
  8
Bemaßungen(DIN)
  6
Continuous
 62
     7
370
    25
100
AcDbLine
 10
799.4790643816059
 20
1572.972908225777
 30
0.0
 11
799.4790643816059
 21
1539.796627367185
 31
0.0
  0
LINE
  5
869
330
773
100
AcDbEntity
  8
Bemaßungen(DIN)
  6
Continuous
 62
     7
370
    25
100
AcDbLine
 10
799.4790643816059
 20
1539.796627367185
 30
0.0
 11
767.4790643816058
 21
1539.796627367185
 31
0.0
  0
SOLID
  5
86A
330
773
100
AcDbEntity
  8
Bemaßungen(DIN)
  6
Continuous
 62
     7
100
AcDbTrace
 10
794.1457310482725
 20
1666.972908225777
 30
0.0
 11
804.8123977149392
 21
1666.972908225777
 31
0.0
 12
799.4790643816059
 22
1634.972908225777
 32
0.0
 13
799.4790643816059
 23
1634.972908225777
 33
0.0
  0
SOLID
  5
86B
330
773
100
AcDbEntity
  8
Bemaßungen(DIN)
  6
Continuous
 62
     7
100
AcDbTrace
 10
794.1457310482725
 20
1572.972908225777
 30
0.0
 11
804.8123977149392
 21
1572.972908225777
 31
0.0
 12
799.4790643816059
 22
1604.972908225777
 32
0.0
 13
799.4790643816059
 23
1604.972908225777
 33
0.0
  0
MTEXT
  5
86C
330
773
100
AcDbEntity
  8
Bemaßungen(DIN)
  6
Continuous
 62
     7
370
    30
100
AcDbMText
 10
718.3418212694605
 20
1539.796627367185
 30
0.0
 40
32.0
 41
0.0
 71
     4
 72
     1
  1
\A1;30
  7
Text__4.0mm
 73
     1
 44
1.0
  0
POINT
  5
86D
330
773
100
AcDbEntity
  8
Defpoints
  6
Continuous
 62
     0
100
AcDbPoint
 10
688.4658608821036
 20
1634.972908225777
 30
0.0
  0
POINT
  5
86E
330
773
100
AcDbEntity
  8
Defpoints
  6
Continuous
 62
     0
100
AcDbPoint
 10
687.4052007103239
 20
1604.972908225777
 30
0.0
  0
POINT
  5
86F
330
773
100
AcDbEntity
  8
Defpoints
  6
Continuous
 62
     0
100
AcDbPoint
 10
799.4790643816059
 20
1604.972908225777
 30
0.0
  0
ENDBLK
  5
775
330
773
100
AcDbEntity
  8
0
100
AcDbBlockEnd
  0
BLOCK
  5
872
330
871
100
AcDbEntity
  8
0
100
AcDbBlockBegin
  2
*D17
 70
     1
 10
0.0
 20
0.0
 30
0.0
  3
*D17
  1

  0
LINE
  5
963
330
871
100
AcDbEntity
  8
Bemaßungen(DIN)
  6
Continuous
 62
     7
370
    25
100
AcDbLine
 10
664.9158608821036
 20
1674.972908225895
 30
0.0
 11
661.7524624856192
 21
1674.972908225895
 31
0.0
  0
LINE
  5
964
330
871
100
AcDbEntity
  8
Bemaßungen(DIN)
  6
Continuous
 62
     7
370
    25
100
AcDbLine
 10
672.4658608821036
 20
1634.972908225777
 30
0.0
 11
661.7524624856192
 21
1634.972908225777
 31
0.0
  0
LINE
  5
965
330
871
100
AcDbEntity
  8
Bemaßungen(DIN)
  6
Continuous
 62
     7
370
    25
100
AcDbLine
 10
677.7524624856193
 20
1602.972908225777
 30
0.0
 11
677.7524624856193
 21
1570.972908225777
 31
0.0
  0
LINE
  5
966
330
871
100
AcDbEntity
  8
Bemaßungen(DIN)
  6
Continuous
 62
     7
370
    25
100
AcDbLine
 10
677.7524624856193
 20
1706.972908225895
 30
0.0
 11
677.7524624856193
 21
1755.466810942681
 31
0.0
  0
LINE
  5
967
330
871
100
AcDbEntity
  8
Bemaßungen(DIN)
  6
Continuous
 62
     7
370
    25
100
AcDbLine
 10
677.7524624856193
 20
1755.466810942681
 30
0.0
 11
709.7524624856192
 21
1755.466810942681
 31
0.0
  0
SOLID
  5
968
330
871
100
AcDbEntity
  8
Bemaßungen(DIN)
  6
Continuous
 62
     7
100
AcDbTrace
 10
672.4191291522859
 20
1602.972908225777
 30
0.0
 11
683.0857958189526
 21
1602.972908225777
 31
0.0
 12
677.7524624856193
 22
1634.972908225777
 32
0.0
 13
677.7524624856193
 23
1634.972908225777
 33
0.0
  0
SOLID
  5
969
330
871
100
AcDbEntity
  8
Bemaßungen(DIN)
  6
Continuous
 62
     7
100
AcDbTrace
 10
672.4191291522859
 20
1706.972908225895
 30
0.0
 11
683.0857958189526
 21
1706.972908225895
 31
0.0
 12
677.7524624856193
 22
1674.972908225895
 32
0.0
 13
677.7524624856193
 23
1674.972908225895
 33
0.0
  0
MTEXT
  5
96A
330
871
100
AcDbEntity
  8
Bemaßungen(DIN)
  6
Continuous
 62
     7
370
    30
100
AcDbMText
 10
717.752462485619
 20
1755.466810942681
 30
0.0
 40
32.0
 41
0.0
 71
     4
 72
     1
  1
\A1;40
  7
Text__4.0mm
 73
     1
 44
1.0
  0
POINT
  5
96B
330
871
100
AcDbEntity
  8
Defpoints
  6
Continuous
 62
     0
100
AcDbPoint
 10
680.9158608821036
 20
1674.972908225895
 30
0.0
  0
POINT
  5
96C
330
871
100
AcDbEntity
  8
Defpoints
  6
Continuous
 62
     0
100
AcDbPoint
 10
688.4658608821036
 20
1634.972908225777
 30
0.0
  0
POINT
  5
96D
330
871
100
AcDbEntity
  8
Defpoints
  6
Continuous
 62
     0
100
AcDbPoint
 10
677.7524624856193
 20
1634.972908225777
 30
0.0
  0
ENDBLK
  5
873
330
871
100
AcDbEntity
  8
0
100
AcDbBlockEnd
  0
BLOCK
  5
970
330
96F
100
AcDbEntity
  8
0
100
AcDbBlockBegin
  2
*D18
 70
     1
 10
0.0
 20
0.0
 30
0.0
  3
*D18
  1

  0
LINE
  5
A54
330
96F
100
AcDbEntity
  8
Bemaßungen(DIN)
  6
Continuous
 62
     7
370
    25
100
AcDbLine
 10
696.9158608821036
 20
1674.972908225895
 30
0.0
 11
850.780673697344
 21
1674.972908225895
 31
0.0
  0
LINE
  5
A55
330
96F
100
AcDbEntity
  8
Bemaßungen(DIN)
  6
Continuous
 62
     7
370
    25
100
AcDbLine
 10
636.5290584753499
 20
1459.922908225864
 30
0.0
 11
850.780673697344
 21
1459.922908225864
 31
0.0
  0
LINE
  5
A56
330
96F
100
AcDbEntity
  8
Bemaßungen(DIN)
  6
Continuous
 62
     7
370
    25
100
AcDbLine
 10
834.780673697344
 20
1642.972908225895
 30
0.0
 11
834.780673697344
 21
1591.786243832973
 31
0.0
  0
LINE
  5
A57
330
96F
100
AcDbEntity
  8
Bemaßungen(DIN)
  6
Continuous
 62
     7
370
    25
100
AcDbLine
 10
834.780673697344
 20
1491.922908225864
 30
0.0
 11
834.780673697344
 21
1543.109572618785
 31
0.0
  0
SOLID
  5
A58
330
96F
100
AcDbEntity
  8
Bemaßungen(DIN)
  6
Continuous
 62
     7
100
AcDbTrace
 10
829.4473403640107
 20
1642.972908225895
 30
0.0
 11
840.1140070306775
 21
1642.972908225895
 31
0.0
 12
834.780673697344
 22
1674.972908225895
 32
0.0
 13
834.780673697344
 23
1674.972908225895
 33
0.0
  0
SOLID
  5
A59
330
96F
100
AcDbEntity
  8
Bemaßungen(DIN)
  6
Continuous
 62
     7
100
AcDbTrace
 10
829.4473403640107
 20
1491.922908225864
 30
0.0
 11
840.1140070306775
 21
1491.922908225864
 31
0.0
 12
834.780673697344
 22
1459.922908225864
 32
0.0
 13
834.780673697344
 23
1459.922908225864
 33
0.0
  0
MTEXT
  5
A5A
330
96F
100
AcDbEntity
  8
Bemaßungen(DIN)
  6
Continuous
 62
     7
370
    30
100
AcDbMText
 10
802.6115067459887
 20
1567.447908225879
 30
0.0
 40
32.0
 41
0.0
 71
     4
 72
     1
  1
\A1;215
  7
Text__4.0mm
 73
     1
 44
1.0
  0
POINT
  5
A5B
330
96F
100
AcDbEntity
  8
Defpoints
  6
Continuous
 62
     0
100
AcDbPoint
 10
680.9158608821036
 20
1674.972908225895
 30
0.0
  0
POINT
  5
A5C
330
96F
100
AcDbEntity
  8
Defpoints
  6
Continuous
 62
     0
100
AcDbPoint
 10
620.5290584753499
 20
1459.922908225864
 30
0.0
  0
POINT
  5
A5D
330
96F
100
AcDbEntity
  8
Defpoints
  6
Continuous
 62
     0
100
AcDbPoint
 10
834.780673697344
 20
1459.922908225864
 30
0.0
  0
ENDBLK
  5
971
330
96F
100
AcDbEntity
  8
0
100
AcDbBlockEnd
  0
BLOCK
  5
A60
330
A5F
100
AcDbEntity
  8
0
100
AcDbBlockBegin
  2
*D19
 70
     1
 10
0.0
 20
0.0
 30
0.0
  3
*D19
  1

  0
LINE
  5
B3E
330
A5F
100
AcDbEntity
  8
Bemaßungen(DIN)
  6
Continuous
 62
     7
370
    25
100
AcDbLine
 10
207.8658608821036
 20
1574.022908225894
 30
0.0
 11
207.8658608821035
 21
1346.692376728134
 31
0.0
  0
LINE
  5
B3F
330
A5F
100
AcDbEntity
  8
Bemaßungen(DIN)
  6
Continuous
 62
     7
370
    25
100
AcDbLine
 10
673.9658608821037
 20
1574.022908225894
 30
0.0
 11
673.9658608821037
 21
1346.692376728134
 31
0.0
  0
LINE
  5
B40
330
A5F
100
AcDbEntity
  8
Bemaßungen(DIN)
  6
Continuous
 62
     7
370
    25
100
AcDbLine
 10
239.8658608821035
 20
1362.692376728134
 30
0.0
 11
400.5305957100065
 21
1362.692376728134
 31
0.0
  0
LINE
  5
B41
330
A5F
100
AcDbEntity
  8
Bemaßungen(DIN)
  6
Continuous
 62
     7
370
    25
100
AcDbLine
 10
641.9658608821037
 20
1362.692376728134
 30
0.0
 11
481.3011260542007
 21
1362.692376728134
 31
0.0
  0
SOLID
  5
B42
330
A5F
100
AcDbEntity
  8
Bemaßungen(DIN)
  6
Continuous
 62
     7
100
AcDbTrace
 10
239.8658608821035
 20
1368.025710061467
 30
0.0
 11
239.8658608821035
 21
1357.3590433948
 31
0.0
 12
207.8658608821036
 22
1362.692376728134
 32
0.0
 13
207.8658608821036
 23
1362.692376728134
 33
0.0
  0
SOLID
  5
B43
330
A5F
100
AcDbEntity
  8
Bemaßungen(DIN)
  6
Continuous
 62
     7
100
AcDbTrace
 10
641.9658608821037
 20
1368.025710061467
 30
0.0
 11
641.9658608821037
 21
1357.3590433948
 31
0.0
 12
673.9658608821037
 22
1362.692376728134
 32
0.0
 13
673.9658608821037
 23
1362.692376728134
 33
0.0
  0
MTEXT
  5
B44
330
A5F
100
AcDbEntity
  8
Bemaßungen(DIN)
  6
Continuous
 62
     7
370
    30
100
AcDbMText
 10
408.5305957100065
 20
1362.692376728134
 30
0.0
 40
32.0
 41
0.0
 71
     4
 72
     1
  1
\A1;466
  7
Text__4.0mm
 73
     1
 44
1.0
  0
POINT
  5
B45
330
A5F
100
AcDbEntity
  8
Defpoints
  6
Continuous
 62
     0
100
AcDbPoint
 10
207.8658608821036
 20
1590.022908225894
 30
0.0
  0
POINT
  5
B46
330
A5F
100
AcDbEntity
  8
Defpoints
  6
Continuous
 62
     0
100
AcDbPoint
 10
673.9658608821037
 20
1590.022908225894
 30
0.0
  0
POINT
  5
B47
330
A5F
100
AcDbEntity
  8
Defpoints
  6
Continuous
 62
     0
100
AcDbPoint
 10
673.9658608821037
 20
1362.692376728134
 30
0.0
  0
ENDBLK
  5
A61
330
A5F
100
AcDbEntity
  8
0
100
AcDbBlockEnd
  0
BLOCK
  5
B96
330
B95
100
AcDbEntity
  8
0
100
AcDbBlockBegin
  2
*D20
 70
     1
 10
0.0
 20
0.0
 30
0.0
  3
*D20
  1

  0
LINE
  5
C7A
330
B95
100
AcDbEntity
  8
Bemaßungen(DIN)
  6
Continuous
 62
     7
370
    25
100
AcDbLine
 10
1454.773969666134
 20
1634.972908225744
 30
0.0
 11
1497.036832367434
 21
1634.972908225744
 31
0.0
  0
LINE
  5
C7B
330
B95
100
AcDbEntity
  8
Bemaßungen(DIN)
  6
Continuous
 62
     7
370
    25
100
AcDbLine
 10
1198.91027371871
 20
1465.054640082989
 30
0.0
 11
1497.036832367433
 21
1465.054640082989
 31
0.0
  0
LINE
  5
C7C
330
B95
100
AcDbEntity
  8
Bemaßungen(DIN)
  6
Continuous
 62
     7
370
    25
100
AcDbLine
 10
1481.036832367434
 20
1602.972908225744
 30
0.0
 11
1481.036832367434
 21
1574.352109761461
 31
0.0
  0
LINE
  5
C7D
330
B95
100
AcDbEntity
  8
Bemaßungen(DIN)
  6
Continuous
 62
     7
370
    25
100
AcDbLine
 10
1481.036832367433
 20
1497.054640082989
 30
0.0
 11
1481.036832367433
 21
1525.675438547272
 31
0.0
  0
SOLID
  5
C7E
330
B95
100
AcDbEntity
  8
Bemaßungen(DIN)
  6
Continuous
 62
     7
100
AcDbTrace
 10
1475.7034990341
 20
1602.972908225744
 30
0.0
 11
1486.370165700767
 21
1602.972908225744
 31
0.0
 12
1481.036832367434
 22
1634.972908225744
 32
0.0
 13
1481.036832367434
 23
1634.972908225744
 33
0.0
  0
SOLID
  5
C7F
330
B95
100
AcDbEntity
  8
Bemaßungen(DIN)
  6
Continuous
 62
     7
100
AcDbTrace
 10
1475.7034990341
 20
1497.054640082989
 30
0.0
 11
1486.370165700767
 21
1497.054640082989
 31
0.0
 12
1481.036832367433
 22
1465.054640082989
 32
0.0
 13
1481.036832367433
 23
1465.054640082989
 33
0.0
  0
MTEXT
  5
C80
330
B95
100
AcDbEntity
  8
Bemaßungen(DIN)
  6
Continuous
 62
     7
370
    30
100
AcDbMText
 10
1450.625919121206
 20
1550.013774154367
 30
0.0
 40
32.0
 41
0.0
 71
     4
 72
     1
  1
\A1;170
  7
Text__4.0mm
 73
     1
 44
1.0
  0
POINT
  5
C81
330
B95
100
AcDbEntity
  8
Defpoints
  6
Continuous
 62
     0
100
AcDbPoint
 10
1438.773969666134
 20
1634.972908225744
 30
0.0
  0
POINT
  5
C82
330
B95
100
AcDbEntity
  8
Defpoints
  6
Continuous
 62
     0
100
AcDbPoint
 10
1182.91027371871
 20
1465.054640082989
 30
0.0
  0
POINT
  5
C83
330
B95
100
AcDbEntity
  8
Defpoints
  6
Continuous
 62
     0
100
AcDbPoint
 10
1481.036832367433
 20
1465.054640082989
 30
0.0
  0
ENDBLK
  5
B97
330
B95
100
AcDbEntity
  8
0
100
AcDbBlockEnd
  0
BLOCK
  5
C86
330
C85
100
AcDbEntity
  8
0
100
AcDbBlockBegin
  2
*D21
 70
     1
 10
0.0
 20
0.0
 30
0.0
  3
*D21
  1

  0
LINE
  5
D64
330
C85
100
AcDbEntity
  8
Bemaßungen(DIN)
  6
Continuous
 62
     7
370
    25
100
AcDbLine
 10
1041.223969666134
 20
1620.472908225869
 30
0.0
 11
1041.223969666134
 21
1363.922908225831
 31
0.0
  0
LINE
  5
D65
330
C85
100
AcDbEntity
  8
Bemaßungen(DIN)
  6
Continuous
 62
     7
370
    25
100
AcDbLine
 10
1146.223969666199
 20
1443.922908225831
 30
0.0
 11
1146.223969666199
 21
1363.922908225831
 31
0.0
  0
LINE
  5
D66
330
C85
100
AcDbEntity
  8
Bemaßungen(DIN)
  6
Continuous
 62
     7
370
    25
100
AcDbLine
 10
1073.223969666134
 20
1379.922908225831
 30
0.0
 11
1114.223969666199
 21
1379.922908225831
 31
0.0
  0
LINE
  5
D67
330
C85
100
AcDbEntity
  8
Bemaßungen(DIN)
  6
Continuous
 62
     7
370
    25
100
AcDbLine
 10
1146.223969666199
 20
1379.922908225831
 30
0.0
 11
1178.223969666199
 21
1379.922908225831
 31
0.0
  0
SOLID
  5
D68
330
C85
100
AcDbEntity
  8
Bemaßungen(DIN)
  6
Continuous
 62
     7
100
AcDbTrace
 10
1073.223969666134
 20
1385.256241559164
 30
0.0
 11
1073.223969666134
 21
1374.589574892498
 31
0.0
 12
1041.223969666134
 22
1379.922908225831
 32
0.0
 13
1041.223969666134
 23
1379.922908225831
 33
0.0
  0
SOLID
  5
D69
330
C85
100
AcDbEntity
  8
Bemaßungen(DIN)
  6
Continuous
 62
     7
100
AcDbTrace
 10
1114.223969666199
 20
1385.256241559164
 30
0.0
 11
1114.223969666199
 21
1374.589574892498
 31
0.0
 12
1146.223969666199
 22
1379.922908225831
 32
0.0
 13
1146.223969666199
 23
1379.922908225831
 33
0.0
  0
MTEXT
  5
D6A
330
C85
100
AcDbEntity
  8
Bemaßungen(DIN)
  6
Continuous
 62
     7
370
    30
100
AcDbMText
 10
1186.223969666199
 20
1379.922908225831
 30
0.0
 40
32.0
 41
0.0
 71
     4
 72
     1
  1
\A1;105
  7
Text__4.0mm
 73
     1
 44
1.0
  0
POINT
  5
D6B
330
C85
100
AcDbEntity
  8
Defpoints
  6
Continuous
 62
     0
100
AcDbPoint
 10
1041.223969666134
 20
1636.472908225869
 30
0.0
  0
POINT
  5
D6C
330
C85
100
AcDbEntity
  8
Defpoints
  6
Continuous
 62
     0
100
AcDbPoint
 10
1146.223969666199
 20
1459.922908225831
 30
0.0
  0
POINT
  5
D6D
330
C85
100
AcDbEntity
  8
Defpoints
  6
Continuous
 62
     0
100
AcDbPoint
 10
1146.223969666199
 20
1379.922908225831
 30
0.0
  0
ENDBLK
  5
C87
330
C85
100
AcDbEntity
  8
0
100
AcDbBlockEnd
  0
BLOCK
  5
D70
330
D6F
100
AcDbEntity
  8
0
100
AcDbBlockBegin
  2
*D22
 70
     1
 10
0.0
 20
0.0
 30
0.0
  3
*D22
  1

  0
LINE
  5
E61
330
D6F
100
AcDbEntity
  8
Bemaßungen(DIN)
  6
Continuous
 62
     7
370
    25
100
AcDbLine
 10
1038.273969666124
 20
1590.022908225867
 30
0.0
 11
1069.887708052053
 21
1590.022908225867
 31
0.0
  0
LINE
  5
E62
330
D6F
100
AcDbEntity
  8
Bemaßungen(DIN)
  6
Continuous
 62
     7
370
    25
100
AcDbLine
 10
1058.418224696444
 20
1475.031699666699
 30
0.0
 11
1069.887708052053
 21
1475.031699666699
 31
0.0
  0
LINE
  5
E63
330
D6F
100
AcDbEntity
  8
Bemaßungen(DIN)
  6
Continuous
 62
     7
370
    25
100
AcDbLine
 10
1053.887708052053
 20
1558.022908225867
 30
0.0
 11
1053.887708052053
 21
1507.031699666699
 31
0.0
  0
LINE
  5
E64
330
D6F
100
AcDbEntity
  8
Bemaßungen(DIN)
  6
Continuous
 62
     7
370
    25
100
AcDbLine
 10
1053.887708052053
 20
1475.031699666699
 30
0.0
 11
1053.887708052053
 21
1430.746446456121
 31
0.0
  0
LINE
  5
E65
330
D6F
100
AcDbEntity
  8
Bemaßungen(DIN)
  6
Continuous
 62
     7
370
    25
100
AcDbLine
 10
1053.887708052053
 20
1430.746446456121
 30
0.0
 11
1021.887708052053
 21
1430.746446456121
 31
0.0
  0
SOLID
  5
E66
330
D6F
100
AcDbEntity
  8
Bemaßungen(DIN)
  6
Continuous
 62
     7
100
AcDbTrace
 10
1048.55437471872
 20
1558.022908225867
 30
0.0
 11
1059.221041385387
 21
1558.022908225867
 31
0.0
 12
1053.887708052053
 22
1590.022908225867
 32
0.0
 13
1053.887708052053
 23
1590.022908225867
 33
0.0
  0
SOLID
  5
E67
330
D6F
100
AcDbEntity
  8
Bemaßungen(DIN)
  6
Continuous
 62
     7
100
AcDbTrace
 10
1048.55437471872
 20
1507.031699666699
 30
0.0
 11
1059.221041385386
 21
1507.031699666699
 31
0.0
 12
1053.887708052053
 22
1475.031699666699
 32
0.0
 13
1053.887708052053
 23
1475.031699666699
 33
0.0
  0
MTEXT
  5
E68
330
D6F
100
AcDbEntity
  8
Bemaßungen(DIN)
  6
Continuous
 62
     7
370
    30
100
AcDbMText
 10
952.7515568748825
 20
1430.746446456121
 30
0.0
 40
32.0
 41
0.0
 71
     4
 72
     1
  1
\A1;115
  7
Text__4.0mm
 73
     1
 44
1.0
  0
POINT
  5
E69
330
D6F
100
AcDbEntity
  8
Defpoints
  6
Continuous
 62
     0
100
AcDbPoint
 10
1022.273969666124
 20
1590.022908225867
 30
0.0
  0
POINT
  5
E6A
330
D6F
100
AcDbEntity
  8
Defpoints
  6
Continuous
 62
     0
100
AcDbPoint
 10
1042.418224696444
 20
1475.031699666699
 30
0.0
  0
POINT
  5
E6B
330
D6F
100
AcDbEntity
  8
Defpoints
  6
Continuous
 62
     0
100
AcDbPoint
 10
1053.887708052053
 20
1475.031699666699
 30
0.0
  0
ENDBLK
  5
D71
330
D6F
100
AcDbEntity
  8
0
100
AcDbBlockEnd
  0
BLOCK
  5
E75
330
E74
100
AcDbEntity
  8
0
100
AcDbBlockBegin
  2
*D23
 70
     1
 10
0.0
 20
0.0
 30
0.0
  3
*D23
  1

  0
LINE
  5
F5A
330
E74
100
AcDbEntity
  8
Bemaßungen(DIN)
  6
Continuous
 62
     7
370
    25
100
AcDbLine
 10
1006.273969666124
 20
1590.022908225867
 30
0.0
 11
967.3196324634757
 21
1590.022908225867
 31
0.0
  0
LINE
  5
F5B
330
E74
100
AcDbEntity
  8
Bemaßungen(DIN)
  6
Continuous
 62
     7
370
    25
100
AcDbLine
 10
1025.223969666148
 20
1674.972908225862
 30
0.0
 11
967.3196324634757
 21
1674.972908225862
 31
0.0
  0
LINE
  5
F5C
330
E74
100
AcDbEntity
  8
Bemaßungen(DIN)
  6
Continuous
 62
     7
370
    25
100
AcDbLine
 10
983.3196324634757
 20
1558.022908225867
 30
0.0
 11
983.3196324634757
 21
1526.022908225867
 31
0.0
  0
LINE
  5
F5D
330
E74
100
AcDbEntity
  8
Bemaßungen(DIN)
  6
Continuous
 62
     7
370
    25
100
AcDbLine
 10
983.3196324634757
 20
1706.972908225862
 30
0.0
 11
983.3196324634757
 21
1738.972908225862
 31
0.0
  0
SOLID
  5
F5E
330
E74
100
AcDbEntity
  8
Bemaßungen(DIN)
  6
Continuous
 62
     7
100
AcDbTrace
 10
977.9862991301424
 20
1558.022908225867
 30
0.0
 11
988.6529657968091
 21
1558.022908225867
 31
0.0
 12
983.3196324634757
 22
1590.022908225867
 32
0.0
 13
983.3196324634757
 23
1590.022908225867
 33
0.0
  0
SOLID
  5
F5F
330
E74
100
AcDbEntity
  8
Bemaßungen(DIN)
  6
Continuous
 62
     7
100
AcDbTrace
 10
977.9862991301424
 20
1706.972908225862
 30
0.0
 11
988.6529657968091
 21
1706.972908225862
 31
0.0
 12
983.3196324634757
 22
1674.972908225862
 32
0.0
 13
983.3196324634757
 23
1674.972908225862
 33
0.0
  0
MTEXT
  5
F60
330
E74
100
AcDbEntity
  8
Bemaßungen(DIN)
  6
Continuous
 62
     7
370
    30
100
AcDbMText
 10
962.5643806258532
 20
1632.497908225878
 30
0.0
 40
32.0
 41
0.0
 71
     4
 72
     1
  1
\A1;85
  7
Text__4.0mm
 73
     1
 44
1.0
  0
POINT
  5
F61
330
E74
100
AcDbEntity
  8
Defpoints
  6
Continuous
 62
     0
100
AcDbPoint
 10
1022.273969666124
 20
1590.022908225867
 30
0.0
  0
POINT
  5
F62
330
E74
100
AcDbEntity
  8
Defpoints
  6
Continuous
 62
     0
100
AcDbPoint
 10
1041.223969666148
 20
1674.972908225862
 30
0.0
  0
POINT
  5
F63
330
E74
100
AcDbEntity
  8
Defpoints
  6
Continuous
 62
     0
100
AcDbPoint
 10
983.3196324634757
 20
1674.972908225862
 30
0.0
  0
ENDBLK
  5
E76
330
E74
100
AcDbEntity
  8
0
100
AcDbBlockEnd
  0
ENDSEC
  0
SECTION
  2
ENTITIES
  0
INSERT
  5
259
330
77
100
AcDbEntity
  8
0
100
AcDbBlockReference
 66
     1
  2
Title Blocks WS-Marketing-FUN
 10
-676.8
 20
-762.1935401047663
 30
0.0
 41
8.0
 42
8.0
 43
8.0
  0
ATTRIB
  5
25B
102
{ACAD_XDICTIONARY
360
FAC
102
}
330
259
100
AcDbEntity
  8
Symbols(ISO)
 62
     7
100
AcDbText
 10
971.9072305593451
 20
226.0136425648027
 30
0.0
 40
40.0
  1
BS 303
  7
Text Style20
100
AcDbAttribute
  2
Title_001
 70
     0
  0
ATTRIB
  5
25C
102
{ACAD_XDICTIONARY
360
FAF
102
}
330
259
100
AcDbEntity
  8
Symbols(ISO)
 62
     7
100
AcDbText
 10
974.472032768177
 20
180.000000238419
 30
0.0
 40
27.99999952316284
  1
cleaner sink CNS
  7
Text Style9
100
AcDbAttribute
  2
Auxiliary_Remark1_001
 70
     0
  0
ATTRIB
  5
25D
102
{ACAD_XDICTIONARY
360
FB2
102
}
330
259
100
AcDbEntity
  8
Symbols(ISO)
 62
     7
100
AcDbText
 10
976.0
 20
128.0000002384191
 30
0.0
 40
27.99999952316284
  1

  7
Text Style9
 11
976.0
 21
142.0000000000006
 31
0.0
100
AcDbAttribute
  2
Auxiliary_Remark2
 70
     0
 74
     2
  0
ATTRIB
  5
25E
102
{ACAD_XDICTIONARY
360
FB5
102
}
330
259
100
AcDbEntity
  8
Symbols(ISO)
 62
     7
100
AcDbText
 10
1305.953615279672
 20
356.0068212824016
 30
0.0
 40
20.0
  1
BS303
  7
Text Style38
100
AcDbAttribute
  2
Part_number_001
 70
     0
  0
ATTRIB
  5
25F
102
{ACAD_XDICTIONARY
360
FB8
102
}
330
259
100
AcDbEntity
  8
Symbols(ISO)
 62
     7
100
AcDbText
 10
1065.680763983628
 20
52.27285129604368
 30
0.0
 40
40.0
  1
0093-129585
  7
Text Style20
100
AcDbAttribute
  2
Document_Number_001
 70
     0
  0
ATTRIB
  5
260
102
{ACAD_XDICTIONARY
360
FBB
102
}
330
259
100
AcDbEntity
  8
Symbols(ISO)
 62
     7
100
AcDbText
 10
568.0
 20
325.9999997615818
 30
0.0
 40
16.00000023841858
  1

  7
Text Style40
 11
568.0
 21
342.0000000000003
 31
0.0
100
AcDbAttribute
  2
Revision_Memo_1
 70
     0
 74
     3
  0
ATTRIB
  5
261
102
{ACAD_XDICTIONARY
360
FBE
102
}
330
259
100
AcDbEntity
  8
Symbols(ISO)
 62
     7
100
AcDbText
 10
1440.0
 20
51.9999999999996
 30
0.0
 40
40.0
  1

  7
Text Style20
 11
1440.0
 21
71.9999999999996
 31
0.0
100
AcDbAttribute
  2
Revision_Index_1
 70
     0
 74
     2
  0
ATTRIB
  5
262
102
{ACAD_XDICTIONARY
360
FC1
102
}
330
259
100
AcDbEntity
  8
Symbols(ISO)
 62
     7
100
AcDbText
 10
968.0000000000001
 20
52.00000000000002
 30
0.0
 40
40.0
  1
A4
  7
Text Style20
100
AcDbAttribute
  2
Sheet_Size_001
 70
     0
  0
ATTRIB
  5
263
102
{ACAD_XDICTIONARY
360
FC4
102
}
330
259
100
AcDbEntity
  8
Symbols(ISO)
 62
     7
100
AcDbText
 10
46.99590721559703
 20
358.0054569067934
 30
0.0
 40
16.00000023841858
  1
SS136
  7
Text Style40
100
AcDbAttribute
  2
Drawn_By_001
 70
     0
  0
ATTRIB
  5
264
102
{ACAD_XDICTIONARY
360
FC7
102
}
330
259
100
AcDbEntity
  8
Symbols(ISO)
 62
     7
100
AcDbText
 10
47.99999999999982
 20
297.9999998807914
 30
0.0
 40
16.00000023841858
  1

  7
Text Style40
 11
47.99999999999982
 21
306.0000000000007
 31
0.0
100
AcDbAttribute
  2
Modified_By
 70
     0
 74
     2
  0
ATTRIB
  5
265
102
{ACAD_XDICTIONARY
360
FCA
102
}
330
259
100
AcDbEntity
  8
Symbols(ISO)
 62
     7
100
AcDbText
 10
405.5661664030236
 20
358.0054569067934
 30
0.0
 40
16.00000023841858
  1
13/10/2010
  7
Text Style40
100
AcDbAttribute
  2
Drawn_Date_001
 70
     0
  0
ATTRIB
  5
266
102
{ACAD_XDICTIONARY
360
FCD
102
}
330
259
100
AcDbEntity
  8
Symbols(ISO)
 62
     7
100
AcDbText
 10
407.3451568797373
 20
297.9999998807914
 30
0.0
 40
16.00000023841858
  1
24/02/2010
  7
Text Style40
100
AcDbAttribute
  2
Modified_Date_001
 70
     0
  0
ATTRIB
  5
267
102
{ACAD_XDICTIONARY
360
FD0
102
}
330
259
100
AcDbEntity
  8
Symbols(ISO)
 62
     7
100
AcDbText
 10
568.0
 20
357.999999880791
 30
0.0
 40
16.00000023841858
  1

  7
Text Style40
 11
568.0
 21
366.0000000000002
 31
0.0
100
AcDbAttribute
  2
Revision_Titel_1
 70
     0
 74
     2
  0
ATTRIB
  5
268
102
{ACAD_XDICTIONARY
360
FD3
102
}
330
259
100
AcDbEntity
  8
Symbols(ISO)
 62
     7
100
AcDbText
 10
1537.893587994543
 20
51.91814461118649
 30
0.0
 40
40.0
  1
1
 41
0.9
  7
Text__5.0mm
100
AcDbAttribute
  2
Sheet_number_001
 70
     0
  0
ATTRIB
  5
269
102
{ACAD_XDICTIONARY
360
FD6
102
}
330
259
100
AcDbEntity
  8
Symbols(ISO)
 62
     7
100
AcDbText
 10
1596.911323328786
 20
51.9999999999996
 30
0.0
 40
40.0
  1
4
 41
0.9
  7
Text__5.0mm
100
AcDbAttribute
  2
Number_of_sheets_001
 70
     0
  0
ATTRIB
  5
26A
102
{ACAD_XDICTIONARY
360
FD9
102
}
330
259
100
AcDbEntity
  8
Symbols(ISO)
 62
     7
100
AcDbText
 10
968.0000000000001
 20
296.0000000000005
 30
0.0
 40
20.0
  1

  7
Text Style38
 11
968.0000000000001
 21
306.0000000000005
 31
0.0
100
AcDbAttribute
  2
FUN
 70
     0
 74
     2
  0
ATTRIB
  5
26B
102
{ACAD_XDICTIONARY
360
FDC
102
}
330
259
100
AcDbEntity
  8
Symbols(ISO)
 62
     7
100
AcDbText
 10
1306.676671214188
 20
296.1364256480223
 30
0.0
 40
20.0
  1
7612979000351
  7
Text Style38
100
AcDbAttribute
  2
EAN_001
 70
     0
  0
ATTRIB
  5
26C
102
{ACAD_XDICTIONARY
360
FDF
102
}
330
259
100
AcDbEntity
  8
Symbols(ISO)
 62
     7
100
AcDbText
 10
206.1664392632643
 20
300.2155524376802
 30
0.0
 40
16.00000023841858
  1
FSI-Marketing
  7
Text Style40
100
AcDbAttribute
  2
Departement_001
 70
     0
  0
ATTRIB
  5
26D
102
{ACAD_XDICTIONARY
360
FE2
102
}
330
259
100
AcDbEntity
  8
Symbols(ISO)
 62
     7
100
AcDbText
 10
206.1664392632643
 20
360.2155524376801
 30
0.0
 40
16.00000023841858
  1
FSI-Marketing
  7
Text Style40
100
AcDbAttribute
  2
Departement_001
 70
     0
  0
SEQEND
  5
25A
330
259
100
AcDbEntity
  8
0
  0
INSERT
  5
279
330
77
100
AcDbEntity
  8
0
100
AcDbBlockReference
  2
Borders Verkauf Border_85x80
 10
0.0
 20
0.0
 30
0.0
 41
8.0
 42
8.0
 43
8.0
  0
LINE
  5
27A
330
77
100
AcDbEntity
  8
MaVisibleEdge
100
AcDbLine
 10
200.9158608818447
 20
961.2040932907412
 30
0.0
 11
190.9158608818447
 21
961.2040932907412
 31
0.0
  0
LINE
  5
27B
330
77
100
AcDbEntity
  8
MaVisibleEdge thinFlag
100
AcDbLine
 10
200.9158608818447
 20
961.2040932907413
 30
0.0
 11
200.9158608818447
 21
962.1540932907413
 31
0.0
  0
LINE
  5
27C
330
77
100
AcDbEntity
  8
MaVisibleEdge
100
AcDbLine
 10
190.9158608818447
 20
962.1540932907413
 30
0.0
 11
200.9158608818447
 21
962.1540932907413
 31
0.0
  0
LINE
  5
27D
330
77
100
AcDbEntity
  8
MaVisibleEdge
100
AcDbLine
 10
190.9158608818447
 20
962.1540932907413
 30
0.0
 11
190.9158608818447
 21
961.2040932907413
 31
0.0
  0
LINE
  5
27E
330
77
100
AcDbEntity
  8
MaVisibleEdge
100
AcDbLine
 10
680.9158608818445
 20
962.1540932907413
 30
0.0
 11
690.9158608818445
 21
962.1540932907413
 31
0.0
  0
LINE
  5
27F
330
77
100
AcDbEntity
  8
MaVisibleEdge thinFlag
100
AcDbLine
 10
680.9158608818445
 20
962.1540932907413
 30
0.0
 11
680.9158608818445
 21
961.2040932907412
 31
0.0
  0
LINE
  5
280
330
77
100
AcDbEntity
  8
MaVisibleEdge
100
AcDbLine
 10
690.9158608818445
 20
961.2040932907412
 30
0.0
 11
680.9158608818445
 21
961.2040932907412
 31
0.0
  0
LINE
  5
281
330
77
100
AcDbEntity
  8
MaVisibleEdge
100
AcDbLine
 10
690.9158608818447
 20
961.2040932907412
 30
0.0
 11
690.9158608818447
 21
962.1540932907413
 31
0.0
  0
LINE
  5
282
330
77
100
AcDbEntity
  8
MaVisibleEdge
100
AcDbLine
 10
680.9158608818445
 20
962.1540932907413
 30
0.0
 11
200.9158608818447
 21
962.1540932907413
 31
0.0
  0
LINE
  5
283
330
77
100
AcDbEntity
  8
MaVisibleEdge
100
AcDbLine
 10
680.9158608818445
 20
961.2040932907412
 30
0.0
 11
200.9158608818447
 21
961.2040932907413
 31
0.0
  0
LINE
  5
284
330
77
100
AcDbEntity
  8
MaVisibleEdge
100
AcDbLine
 10
191.9158608818446
 20
960.8302974504887
 30
0.0
 11
191.9158608818446
 21
960.9711302462059
 31
0.0
  0
SPLINE
  5
285
330
77
100
AcDbEntity
  8
MaVisibleEdge
100
AcDbSpline
210
0.0
220
0.0
230
1.0
 70
     8
 71
     3
 72
    10
 73
     6
 74
     0
 42
0.0000000001
 43
0.0000000001
 40
-1.0
 40
-1.0
 40
-1.0
 40
-1.0
 40
-0.75
 40
-0.75
 40
-0.6072414666476734
 40
-0.6072414666476734
 40
-0.6072414666476734
 40
-0.6072414666476734
 10
191.8658608818447
 20
563.1748039688618
 30
0.0
 10
191.8658608818446
 20
563.2392281590727
 30
0.0
 10
191.9367253188018
 20
563.370497712289
 30
0.0
 10
192.0924683420551
 20
563.6451251919135
 30
0.0
 10
192.1584119488973
 20
563.7591424832644
 30
0.0
 10
192.2304275500435
 20
563.8830163725522
 30
0.0
  0
LINE
  5
286
330
77
100
AcDbEntity
  8
MaVisibleEdge
100
AcDbLine
 10
689.9158608818448
 20
960.9711302462059
 30
0.0
 11
689.9158608818448
 21
960.8302974504885
 31
0.0
  0
SPLINE
  5
287
330
77
100
AcDbEntity
  8
MaVisibleEdge
100
AcDbSpline
210
0.0
220
0.0
230
1.0
 70
    24
 71
     3
 72
     8
 73
     4
 74
     0
 42
0.0000000001
 43
0.0000000001
 40
-0.7120665854796219
 40
-0.7120665854796219
 40
-0.7120665854796219
 40
-0.7120665854796219
 40
0.0
 40
0.0
 40
0.0
 40
0.0
 10
690.2393976256392
 20
961.1040932907423
 30
0.0
 10
690.4648853777076
 20
961.1040932907423
 30
0.0
 10
690.6903731297762
 20
961.1040932907423
 30
0.0
 10
690.9158608818447
 20
961.1040932907423
 30
0.0
  0
SPLINE
  5
288
330
77
100
AcDbEntity
  8
MaVisibleEdge
100
AcDbSpline
210
0.0
220
0.0
230
1.0
 70
    24
 71
     3
 72
     8
 73
     4
 74
     0
 42
0.0000000001
 43
0.0000000001
 40
0.0
 40
0.0
 40
0.0
 40
0.0
 40
1.0
 40
1.0
 40
1.0
 40
1.0
 10
690.9158608818447
 20
563.1748039688611
 30
0.0
 10
690.599194215178
 20
563.1748039688611
 30
0.0
 10
690.2825275485113
 20
563.1748039688611
 30
0.0
 10
689.9658608818447
 20
563.1748039688611
 30
0.0
  0
SPLINE
  5
289
330
77
100
AcDbEntity
  8
MaVisibleEdge
100
AcDbSpline
210
0.0
220
0.0
230
1.0
 70
     8
 71
     3
 72
    10
 73
     6
 74
     0
 42
0.0000000001
 43
0.0000000001
 40
0.6072414666497349
 40
0.6072414666497349
 40
0.6072414666497349
 40
0.6072414666497349
 40
0.75
 40
0.75
 40
1.0
 40
1.0
 40
1.0
 40
1.0
 10
689.6012942136486
 20
563.8830163725491
 30
0.0
 10
689.6733098147936
 20
563.7591424832628
 30
0.0
 10
689.7392534216349
 20
563.6451251919133
 30
0.0
 10
689.8949964448872
 20
563.3704977122893
 30
0.0
 10
689.9658608818447
 20
563.2392281590722
 30
0.0
 10
689.9658608818447
 20
563.1748039688611
 30
0.0
  0
SPLINE
  5
28A
330
77
100
AcDbEntity
  8
MaVisibleEdge
100
AcDbSpline
210
0.0
220
0.0
230
1.0
 70
     8
 71
     3
 72
    10
 73
     6
 74
     0
 42
0.0000000001
 43
0.0000000001
 40
-1.0
 40
-1.0
 40
-1.0
 40
-1.0
 40
-0.75
 40
-0.75
 40
-0.6072414666516675
 40
-0.6072414666516675
 40
-0.6072414666516675
 40
-0.6072414666516675
 10
689.895150203726
 20
563.1040932907411
 30
0.0
 10
689.8307260135148
 20
563.1040932907413
 30
0.0
 10
689.6994564602977
 20
563.1749577276987
 30
0.0
 10
689.4248289806751
 20
563.3307007509504
 30
0.0
 10
689.3108116893272
 20
563.3966443577903
 30
0.0
 10
689.1869378000428
 20
563.4686599589342
 30
0.0
  0
SPLINE
  5
28B
330
77
100
AcDbEntity
  8
MaVisibleEdge
100
AcDbSpline
210
0.0
220
0.0
230
1.0
 70
     8
 71
     3
 72
    10
 73
     6
 74
     0
 42
0.0000000001
 43
0.0000000001
 40
0.6072414666517073
 40
0.6072414666517073
 40
0.6072414666517073
 40
0.6072414666517073
 40
0.75
 40
0.75
 40
1.0
 40
1.0
 40
1.0
 40
1.0
 10
192.6447839636462
 20
563.468659958934
 30
0.0
 10
192.520910074362
 20
563.3966443577902
 30
0.0
 10
192.4068927830142
 20
563.3307007509504
 30
0.0
 10
192.1322653033915
 20
563.1749577276986
 30
0.0
 10
192.0009957501744
 20
563.1040932907413
 30
0.0
 10
191.9365715599633
 20
563.1040932907411
 30
0.0
  0
LINE
  5
28C
330
77
100
AcDbEntity
  8
MaVisibleEdge
100
AcDbLine
 10
689.895150203726
 20
562.1540932907426
 30
0.0
 11
689.895150203726
 21
563.1040932907425
 31
0.0
  0
LINE
  5
28D
330
77
100
AcDbEntity
  8
MaVisibleEdge
100
AcDbLine
 10
690.9158608818447
 20
563.1748039688611
 30
0.0
 11
690.9158608818447
 21
961.1040932907423
 31
0.0
  0
SPLINE
  5
28E
330
77
100
AcDbEntity
  8
MaVisibleEdge
100
AcDbSpline
210
0.0
220
0.0
230
1.0
 70
     8
 71
     3
 72
    14
 73
    10
 74
     0
 42
0.0000000001
 43
0.0000000001
 40
-1.0
 40
-1.0
 40
-1.0
 40
-1.0
 40
-0.75
 40
-0.75
 40
-0.5
 40
-0.5
 40
-0.25
 40
-0.25
 40
0.0
 40
0.0
 40
0.0
 40
0.0
 10
690.9158608818447
 20
961.1040932907423
 30
0.0
 10
690.9158608818448
 20
961.0654211183446
 30
0.0
 10
690.9215959919801
 20
960.9585850321456
 30
0.0
 10
690.7331847060604
 20
960.6815829674962
 30
0.0
 10
690.520503295387
 20
960.5114169890459
 30
0.0
 10
689.8787122918082
 20
960.1807530752443
 30
0.0
 10
689.4625102513211
 20
960.0202551398934
 30
0.0
 10
688.7795543150197
 20
959.7819252476417
 30
0.0
 10
688.5202731414574
 20
959.7040932907411
 30
0.0
 10
688.4658608818447
 20
959.7040932907411
 30
0.0
  0
SPLINE
  5
28F
330
77
100
AcDbEntity
  8
MaVisibleEdge
100
AcDbSpline
210
0.0
220
0.0
230
1.0
 70
     8
 71
     3
 72
    14
 73
    10
 74
     0
 42
0.0000000001
 43
0.0000000001
 40
0.0
 40
0.0
 40
0.0
 40
0.0
 40
0.25
 40
0.25
 40
0.5
 40
0.5
 40
0.75
 40
0.75
 40
0.868760124029132
 40
0.868760124029132
 40
0.868760124029132
 40
0.868760124029132
 10
688.4658608818447
 20
959.7040932907411
 30
0.0
 10
688.4991745101792
 20
959.7040932907411
 30
0.0
 10
688.6579180858293
 20
959.7819252476417
 30
0.0
 10
689.0760543733608
 20
960.0202551398934
 30
0.0
 10
689.3308719491693
 20
960.1807530752443
 30
0.0
 10
689.7238052166665
 20
960.5114169890459
 30
0.0
 10
689.8540183252421
 20
960.6815829674962
 30
0.0
 10
689.9390941242188
 20
960.8858775989292
 30
0.0
 10
689.9526850535673
 20
960.9445255763239
 30
0.0
 10
689.9594037787606
 20
960.9921152686521
 30
0.0
  0
SPLINE
  5
290
330
77
100
AcDbEntity
  8
MaVisibleEdge
100
AcDbSpline
210
0.0
220
0.0
230
1.0
 70
     8
 71
     3
 72
    14
 73
    10
 74
     0
 42
0.0000000001
 43
0.0000000001
 40
0.0
 40
0.0
 40
0.0
 40
0.0
 40
0.25
 40
0.25
 40
0.5
 40
0.5
 40
0.75
 40
0.75
 40
1.0
 40
1.0
 40
1.0
 40
1.0
 10
688.4658608818445
 20
959.7040932907413
 30
0.0
 10
688.4658608818445
 20
959.7458606900582
 30
0.0
 10
688.5990084026606
 20
959.9073703373466
 30
0.0
 10
689.0084397047007
 20
960.3241608223077
 30
0.0
 10
689.2847234859248
 20
960.5748583029948
 30
0.0
 10
689.8572685275569
 20
960.9617267116554
 30
0.0
 10
690.1535297879649
 20
961.0905603975657
 30
0.0
 10
690.6428710067409
 20
961.2065232919528
 30
0.0
 10
690.8359509651088
 20
961.204093290741
 30
0.0
 10
690.9158608818447
 20
961.204093290741
 30
0.0
  0
SPLINE
  5
291
330
77
100
AcDbEntity
  8
MaVisibleEdge
100
AcDbSpline
210
0.0
220
0.0
230
1.0
 70
     8
 71
     3
 72
    14
 73
    10
 74
     0
 42
0.0000000001
 43
0.0000000001
 40
-1.0
 40
-1.0
 40
-1.0
 40
-1.0
 40
-0.75
 40
-0.75
 40
-0.5
 40
-0.5
 40
-0.25
 40
-0.25
 40
0.0
 40
0.0
 40
0.0
 40
0.0
 10
689.895150203726
 20
562.1540932907413
 30
0.0
 10
689.8554994431633
 20
562.1540932907414
 30
0.0
 10
689.7463434802643
 20
562.1483993622396
 30
0.0
 10
689.4634826972005
 20
562.3368412902374
 30
0.0
 10
689.2897778770357
 20
562.549477052184
 30
0.0
 10
688.9522809268466
 20
563.1910475579895
 30
0.0
 10
688.7884887968225
 20
563.6070957962509
 30
0.0
 10
688.5452787743214
 20
564.2899951892379
 30
0.0
 10
688.4658608818445
 20
564.5493734675634
 30
0.0
 10
688.4658608818445
 20
564.6040932907413
 30
0.0
  0
SPLINE
  5
292
330
77
100
AcDbEntity
  8
MaVisibleEdge
100
AcDbSpline
210
0.0
220
0.0
230
1.0
 70
     8
 71
     3
 72
    14
 73
    10
 74
     0
 42
0.0000000001
 43
0.0000000001
 40
0.0
 40
0.0
 40
0.0
 40
0.0
 40
0.25
 40
0.25
 40
0.5
 40
0.5
 40
0.75
 40
0.75
 40
1.0
 40
1.0
 40
1.0
 40
1.0
 10
688.4658608818447
 20
564.6040932907413
 30
0.0
 10
688.4658608818447
 20
564.5705913581834
 30
0.0
 10
688.5452787743214
 20
564.4117883306373
 30
0.0
 10
688.7884887968225
 20
563.9936866614614
 30
0.0
 10
688.9522809268466
 20
563.7389632502811
 30
0.0
 10
689.2897778770357
 20
563.3461649814206
 30
0.0
 10
689.4634826972005
 20
563.215979821045
 30
0.0
 10
689.7463434802643
 20
563.1006072120668
 30
0.0
 10
689.8554994431633
 20
563.1040932907414
 30
0.0
 10
689.895150203726
 20
563.1040932907414
 30
0.0
  0
SPLINE
  5
293
330
77
100
AcDbEntity
  8
MaVisibleEdge
100
AcDbSpline
210
0.0
220
0.0
230
1.0
 70
     8
 71
     3
 72
    14
 73
    10
 74
     0
 42
0.0000000001
 43
0.0000000001
 40
0.0
 40
0.0
 40
0.0
 40
0.0
 40
0.25
 40
0.25
 40
0.5
 40
0.5
 40
0.75
 40
0.75
 40
1.0
 40
1.0
 40
1.0
 40
1.0
 10
688.4658608818445
 20
564.6040932907413
 30
0.0
 10
688.5205807050226
 20
564.6040932907413
 30
0.0
 10
688.7799589833489
 20
564.5246753982644
 30
0.0
 10
689.4628583763382
 20
564.2814653757636
 30
0.0
 10
689.8789066146004
 20
564.1176732457394
 30
0.0
 10
690.5204771204067
 20
563.7801762955509
 30
0.0
 10
690.7331128823525
 20
563.6064714753862
 30
0.0
 10
690.9215548103481
 20
563.3236106923226
 30
0.0
 10
690.9158608818448
 20
563.2144547294238
 30
0.0
 10
690.9158608818447
 20
563.1748039688611
 30
0.0
  0
SPLINE
  5
294
330
77
100
AcDbEntity
  8
MaVisibleEdge
100
AcDbSpline
210
0.0
220
0.0
230
1.0
 70
     8
 71
     3
 72
    14
 73
    10
 74
     0
 42
0.0000000001
 43
0.0000000001
 40
-1.0
 40
-1.0
 40
-1.0
 40
-1.0
 40
-0.75
 40
-0.75
 40
-0.5
 40
-0.5
 40
-0.25
 40
-0.25
 40
0.0
 40
0.0
 40
0.0
 40
0.0
 10
689.9658608818447
 20
563.1748039688611
 30
0.0
 10
689.9658608818447
 20
563.2144547294238
 30
0.0
 10
689.9693469605201
 20
563.3236106923227
 30
0.0
 10
689.8539743515434
 20
563.6064714753862
 30
0.0
 10
689.7237891911684
 20
563.7801762955509
 30
0.0
 10
689.3309909223074
 20
564.1176732457396
 30
0.0
 10
689.0762675111264
 20
564.2814653757636
 30
0.0
 10
688.6581658419493
 20
564.5246753982645
 30
0.0
 10
688.4993628144026
 20
564.6040932907413
 30
0.0
 10
688.4658608818447
 20
564.6040932907413
 30
0.0
  0
LINE
  5
295
330
77
100
AcDbEntity
  8
MaVisibleEdge
100
AcDbLine
 10
190.9158608818447
 20
961.1040932907426
 30
0.0
 11
190.9158608818447
 21
563.1748039688619
 31
0.0
  0
LINE
  5
296
330
77
100
AcDbEntity
  8
MaVisibleEdge
100
AcDbLine
 10
191.9365715599633
 20
563.1040932907433
 30
0.0
 11
191.9365715599633
 21
562.1540932907432
 31
0.0
  0
SPLINE
  5
297
330
77
100
AcDbEntity
  8
MaVisibleEdge
100
AcDbSpline
210
0.0
220
0.0
230
1.0
 70
     8
 71
     3
 72
    14
 73
    10
 74
     0
 42
0.0000000001
 43
0.0000000001
 40
0.0
 40
0.0
 40
0.0
 40
0.0
 40
0.25
 40
0.25
 40
0.5
 40
0.5
 40
0.75
 40
0.75
 40
1.0
 40
1.0
 40
1.0
 40
1.0
 10
193.3658608818447
 20
959.7040932907413
 30
0.0
 10
193.3114486222317
 20
959.7040932907413
 30
0.0
 10
193.0521674486695
 20
959.7819252476419
 30
0.0
 10
192.3692115123681
 20
960.0202551398936
 30
0.0
 10
191.953009471881
 20
960.1807530752447
 30
0.0
 10
191.3112184683023
 20
960.5114169890462
 30
0.0
 10
191.0985370576289
 20
960.6815829674966
 30
0.0
 10
190.9101257717092
 20
960.958585032146
 30
0.0
 10
190.9158608818445
 20
961.0654211183447
 30
0.0
 10
190.9158608818447
 20
961.1040932907426
 30
0.0
  0
SPLINE
  5
298
330
77
100
AcDbEntity
  8
MaVisibleEdge
100
AcDbSpline
210
0.0
220
0.0
230
1.0
 70
     8
 71
     3
 72
    14
 73
    10
 74
     0
 42
0.0000000001
 43
0.0000000001
 40
-0.8687601240288863
 40
-0.8687601240288863
 40
-0.8687601240288863
 40
-0.8687601240288863
 40
-0.75
 40
-0.75
 40
-0.5
 40
-0.5
 40
-0.25
 40
-0.25
 40
0.0
 40
0.0
 40
0.0
 40
0.0
 10
191.872317984929
 20
960.9921152686521
 30
0.0
 10
191.8790367101222
 20
960.9445255763239
 30
0.0
 10
191.8926276394707
 20
960.8858775989292
 30
0.0
 10
191.9777034384472
 20
960.6815829674966
 30
0.0
 10
192.1079165470228
 20
960.5114169890459
 30
0.0
 10
192.50084981452
 20
960.1807530752447
 30
0.0
 10
192.7556673903284
 20
960.0202551398936
 30
0.0
 10
193.1738036778599
 20
959.7819252476421
 30
0.0
 10
193.3325472535102
 20
959.7040932907413
 30
0.0
 10
193.3658608818447
 20
959.7040932907413
 30
0.0
  0
SPLINE
  5
299
330
77
100
AcDbEntity
  8
MaVisibleEdge
100
AcDbSpline
210
0.0
220
0.0
230
1.0
 70
     8
 71
     3
 72
    14
 73
    10
 74
     0
 42
0.0000000001
 43
0.0000000001
 40
-1.0
 40
-1.0
 40
-1.0
 40
-1.0
 40
-0.75
 40
-0.75
 40
-0.5
 40
-0.5
 40
-0.25
 40
-0.25
 40
0.0
 40
0.0
 40
0.0
 40
0.0
 10
190.9158608818447
 20
961.2040932907412
 30
0.0
 10
190.9957707985805
 20
961.2040932907412
 30
0.0
 10
191.1888507569485
 20
961.206523291953
 30
0.0
 10
191.6781919757244
 20
961.0905603975657
 30
0.0
 10
191.9744532361324
 20
960.9617267116554
 30
0.0
 10
192.5469982777644
 20
960.5748583029948
 30
0.0
 10
192.8232820589884
 20
960.3241608223077
 30
0.0
 10
193.2327133610286
 20
959.907370337347
 30
0.0
 10
193.3658608818446
 20
959.7458606900584
 30
0.0
 10
193.3658608818446
 20
959.7040932907413
 30
0.0
  0
SPLINE
  5
29A
330
77
100
AcDbEntity
  8
MaVisibleEdge
100
AcDbSpline
210
0.0
220
0.0
230
1.0
 70
     8
 71
     3
 72
    14
 73
    10
 74
     0
 42
0.0000000001
 43
0.0000000001
 40
0.0
 40
0.0
 40
0.0
 40
0.0
 40
0.25
 40
0.25
 40
0.5
 40
0.5
 40
0.75
 40
0.75
 40
1.0
 40
1.0
 40
1.0
 40
1.0
 10
193.3658608818447
 20
564.6040932907413
 30
0.0
 10
193.3658608818447
 20
564.5493734675634
 30
0.0
 10
193.2864429893678
 20
564.2899951892379
 30
0.0
 10
193.0432329668667
 20
563.6070957962509
 30
0.0
 10
192.8794408368426
 20
563.1910475579895
 30
0.0
 10
192.5419438866536
 20
562.549477052184
 30
0.0
 10
192.3682390664886
 20
562.3368412902374
 30
0.0
 10
192.085378283425
 20
562.1483993622396
 30
0.0
 10
191.976222320526
 20
562.1540932907414
 30
0.0
 10
191.9365715599633
 20
562.1540932907413
 30
0.0
  0
SPLINE
  5
29B
330
77
100
AcDbEntity
  8
MaVisibleEdge
100
AcDbSpline
210
0.0
220
0.0
230
1.0
 70
     8
 71
     3
 72
    14
 73
    10
 74
     0
 42
0.0000000001
 43
0.0000000001
 40
-1.0
 40
-1.0
 40
-1.0
 40
-1.0
 40
-0.75
 40
-0.75
 40
-0.5
 40
-0.5
 40
-0.25
 40
-0.25
 40
0.0
 40
0.0
 40
0.0
 40
0.0
 10
191.9365715599633
 20
563.1040932907414
 30
0.0
 10
191.976222320526
 20
563.1040932907414
 30
0.0
 10
192.0853782834249
 20
563.1006072120668
 30
0.0
 10
192.3682390664887
 20
563.215979821045
 30
0.0
 10
192.5419438866535
 20
563.3461649814206
 30
0.0
 10
192.8794408368425
 20
563.7389632502811
 30
0.0
 10
193.0432329668667
 20
563.9936866614614
 30
0.0
 10
193.2864429893678
 20
564.4117883306373
 30
0.0
 10
193.3658608818447
 20
564.5705913581834
 30
0.0
 10
193.3658608818447
 20
564.6040932907413
 30
0.0
  0
SPLINE
  5
29C
330
77
100
AcDbEntity
  8
MaVisibleEdge
100
AcDbSpline
210
0.0
220
0.0
230
1.0
 70
     8
 71
     3
 72
    14
 73
    10
 74
     0
 42
0.0000000001
 43
0.0000000001
 40
-1.0
 40
-1.0
 40
-1.0
 40
-1.0
 40
-0.75
 40
-0.75
 40
-0.5
 40
-0.5
 40
-0.25
 40
-0.25
 40
0.0
 40
0.0
 40
0.0
 40
0.0
 10
190.9158608818447
 20
563.1748039688619
 30
0.0
 10
190.9158608818445
 20
563.2144547294245
 30
0.0
 10
190.9101669533413
 20
563.3236106923233
 30
0.0
 10
191.0986088813366
 20
563.6064714753866
 30
0.0
 10
191.3112446432825
 20
563.7801762955513
 30
0.0
 10
191.9528151490886
 20
564.1176732457398
 30
0.0
 10
192.368863387351
 20
564.2814653757637
 30
0.0
 10
193.0517627803403
 20
564.5246753982645
 30
0.0
 10
193.3111410586666
 20
564.6040932907413
 30
0.0
 10
193.3658608818447
 20
564.6040932907413
 30
0.0
  0
SPLINE
  5
29D
330
77
100
AcDbEntity
  8
MaVisibleEdge
100
AcDbSpline
210
0.0
220
0.0
230
1.0
 70
     8
 71
     3
 72
    14
 73
    10
 74
     0
 42
0.0000000001
 43
0.0000000001
 40
0.0
 40
0.0
 40
0.0
 40
0.0
 40
0.25
 40
0.25
 40
0.5
 40
0.5
 40
0.75
 40
0.75
 40
1.0
 40
1.0
 40
1.0
 40
1.0
 10
193.3658608818447
 20
564.6040932907413
 30
0.0
 10
193.3323589492866
 20
564.6040932907413
 30
0.0
 10
193.1735559217399
 20
564.5246753982645
 30
0.0
 10
192.7554542525628
 20
564.2814653757637
 30
0.0
 10
192.5007308413817
 20
564.1176732457398
 30
0.0
 10
192.1079325725209
 20
563.7801762955513
 30
0.0
 10
191.9777474121459
 20
563.6064714753866
 30
0.0
 10
191.8623748031691
 20
563.3236106923233
 30
0.0
 10
191.8658608818446
 20
563.2144547294245
 30
0.0
 10
191.8658608818447
 20
563.1748039688619
 30
0.0
  0
SPLINE
  5
29E
330
77
100
AcDbEntity
  8
MaVisibleEdge
100
AcDbSpline
210
0.0
220
0.0
230
1.0
 70
    24
 71
     3
 72
     8
 73
     4
 74
     0
 42
0.0000000001
 43
0.0000000001
 40
0.0
 40
0.0
 40
0.0
 40
0.0
 40
0.712066585478701
 40
0.712066585478701
 40
0.712066585478701
 40
0.712066585478701
 10
190.9158608818447
 20
961.1040932907426
 30
0.0
 10
191.1413486339129
 20
961.1040932907426
 30
0.0
 10
191.3668363859811
 20
961.1040932907426
 30
0.0
 10
191.5923241380495
 20
961.1040932907426
 30
0.0
  0
SPLINE
  5
29F
330
77
100
AcDbEntity
  8
MaVisibleEdge
100
AcDbSpline
210
0.0
220
0.0
230
1.0
 70
    24
 71
     3
 72
     8
 73
     4
 74
     0
 42
0.0000000001
 43
0.0000000001
 40
-1.0
 40
-1.0
 40
-1.0
 40
-1.0
 40
0.0
 40
0.0
 40
0.0
 40
0.0
 10
191.8658608818447
 20
563.1748039688619
 30
0.0
 10
191.549194215178
 20
563.1748039688619
 30
0.0
 10
191.2325275485113
 20
563.1748039688619
 30
0.0
 10
190.9158608818447
 20
563.1748039688619
 30
0.0
  0
LINE
  5
2A0
330
77
100
AcDbEntity
  8
MaVisibleEdge
100
AcDbLine
 10
191.9365715599633
 20
562.1540932907432
 30
0.0
 11
689.895150203726
 21
562.1540932907426
 31
0.0
  0
ARC
  5
2A1
330
77
100
AcDbEntity
  8
MaVisibleEdge thinFlag
100
AcDbCircle
 10
310.9158608818447
 20
842.1540932907413
 30
0.0
 40
79.86202113611636
100
AcDbArc
 50
90.00000000000003
 51
180.0
  0
LINE
  5
2A2
330
77
100
AcDbEntity
  8
MaVisibleEdge thinFlag
100
AcDbLine
 10
231.0538397457283
 20
682.1540932907413
 30
0.0
 11
231.0538397457283
 21
842.1540932907413
 31
0.0
  0
LINE
  5
2A3
330
77
100
AcDbEntity
  8
MaVisibleEdge thinFlag
100
AcDbLine
 10
310.9158608818447
 20
922.0161144268576
 30
0.0
 11
570.9158608818446
 21
922.0161144268576
 31
0.0
  0
ARC
  5
2A4
330
77
100
AcDbEntity
  8
MaVisibleEdge thinFlag
100
AcDbCircle
 10
310.9158608818447
 20
682.1540932907413
 30
0.0
 40
79.86202113611641
100
AcDbArc
 50
180.0
 51
270.0
  0
ARC
  5
2A5
330
77
100
AcDbEntity
  8
MaVisibleEdge thinFlag
100
AcDbCircle
 10
570.9158608818446
 20
842.1540932907412
 30
0.0
 40
79.86202113611638
100
AcDbArc
 50
0.0
 51
90.0
  0
LINE
  5
2A6
330
77
100
AcDbEntity
  8
MaVisibleEdge thinFlag
100
AcDbLine
 10
570.9158608818447
 20
602.2920721546249
 30
0.0
 11
310.9158608818447
 21
602.2920721546249
 31
0.0
  0
LINE
  5
2A7
330
77
100
AcDbEntity
  8
MaVisibleEdge thinFlag
100
AcDbLine
 10
650.777882017961
 20
842.1540932907413
 30
0.0
 11
650.777882017961
 21
682.1540932907413
 31
0.0
  0
ARC
  5
2A8
330
77
100
AcDbEntity
  8
MaVisibleEdge thinFlag
100
AcDbCircle
 10
570.9158608818447
 20
682.1540932907413
 30
0.0
 40
79.86202113611629
100
AcDbArc
 50
270.0
 51
0.0
  0
CIRCLE
  5
2A9
330
77
100
AcDbEntity
  8
MaVisibleEdge thinFlag
100
AcDbCircle
 10
585.9158608818446
 20
857.1540932907414
 30
0.0
 40
36.6863040525099
  0
CIRCLE
  5
2AA
330
77
100
AcDbEntity
  8
MaVisibleEdge
100
AcDbCircle
 10
585.9158608818446
 20
857.1540932907414
 30
0.0
 40
30.00000000000004
  0
DIMENSION
  5
2AB
330
77
100
AcDbEntity
  8
Bemaßungen(DIN)
  6
Continuous
 62
     7
370
    30
100
AcDbDimension
  2
*D11
 10
690.9158608818447
 20
1074.800519991157
 30
0.0
 11
440.9158608818447
 21
1074.800519991157
 31
0.0
 70
   160
  1
<>
 71
     4
 42
500.0
  3
MarketingDrawing
100
AcDbAlignedDimension
 13
190.9158608818446
 23
961.1040932907426
 33
0.0
 14
690.9158608818447
 24
961.1040932907423
 34
0.0
 50
180.0
100
AcDbRotatedDimension
1001
ACAD
1000
DSTYLE
1002
{
1070
   289
1070
     1
1070
    73
1070
     0
1070
    74
1070
     0
1070
   271
1070
     0
1070
   272
1070
     4
1070
    48
1040
0.0
1070
    47
1040
0.0
1002
}
  0
DIMENSION
  5
396
330
77
100
AcDbEntity
  8
Bemaßungen(DIN)
  6
Continuous
 62
     7
370
    30
100
AcDbDimension
  2
*D12
 10
690.9158608818447
 20
1022.444345929036
 30
0.0
 11
511.5926916504299
 21
1022.444345929036
 31
0.0
 70
   160
  1
<>
 71
     4
 42
105.0000000000001
  3
MarketingDrawing
100
AcDbAlignedDimension
 13
585.9158608818446
 23
857.1540932907414
 33
0.0
 14
690.9158608818447
 24
961.1040932907423
 34
0.0
100
AcDbRotatedDimension
1001
ACAD
1000
DSTYLE
1002
{
1070
   289
1070
     2
1070
    73
1070
     0
1070
    74
1070
     0
1070
   271
1070
     0
1070
   272
1070
     4
1070
    48
1040
0.0
1070
    47
1040
0.0
1002
}
  0
DIMENSION
  5
480
330
77
100
AcDbEntity
  8
Bemaßungen(DIN)
  6
Continuous
 62
     7
370
    30
100
AcDbDimension
  2
*D13
 10
811.1434533164921
 20
962.1540932907411
 30
0.0
 11
740.5753777279064
 21
808.6601905739557
 31
0.0
 70
   160
  1
<>
 71
     4
 42
104.9999999999999
  3
MarketingDrawing
100
AcDbAlignedDimension
 13
585.9158608818446
 23
857.1540932907414
 33
0.0
 14
680.9158608818445
 24
962.1540932907413
 34
0.0
 50
90.0
100
AcDbRotatedDimension
1001
ACAD
1000
DSTYLE
1002
{
1070
   289
1070
     2
1070
   271
1070
     0
1070
   272
1070
     4
1070
    48
1040
0.0
1070
    47
1040
0.0
1002
}
  0
DIMENSION
  5
57E
330
77
100
AcDbEntity
  8
Bemaßungen(DIN)
  6
Continuous
 62
     7
370
    30
100
AcDbDimension
  2
*D14
 10
868.6078140796121
 20
562.1540932907424
 30
0.0
 11
868.6078140796119
 21
762.1540932907419
 31
0.0
 70
   160
  1
<>
 71
     4
 42
399.9999999999986
  3
MarketingDrawing
100
AcDbAlignedDimension
 13
680.9158608818445
 23
962.1540932907413
 33
0.0
 14
689.895150203726
 24
562.1540932907426
 34
0.0
 50
90.0
100
AcDbRotatedDimension
1001
ACAD
1000
DSTYLE
1002
{
1070
   289
1070
     1
1070
   271
1070
     0
1070
   272
1070
     4
1070
    48
1040
0.0
1070
    47
1040
0.0
1002
}
  0
DIMENSION
  5
66E
330
77
100
AcDbEntity
  8
Bemaßungen(DIN)
  6
Continuous
 62
     7
370
    30
100
AcDbDimension
  2
*D15
 10
564.7026574462452
 20
878.3672967263347
 30
0.0
 11
759.3807489042082
 21
683.6892052684289
 31
0.0
 70
   163
  1
<>
 71
     4
 42
59.99999999999983
  3
MarketingDrawing
100
AcDbDiametricDimension
 15
607.1290643174441
 25
835.9408898551482
 35
0.0
 40
0.0
1001
ACAD
1000
DSTYLE
1002
{
1070
   144
1040
0.9999999999999989
1070
   172
1070
     1
1070
    77
1070
     1
1070
    73
1070
     0
1070
    74
1070
     0
1070
   289
1070
     2
1070
   271
1070
     0
1070
   272
1070
     4
1070
    48
1040
0.0
1070
    47
1040
0.0
1002
}
1001
ACAD_DSTYLE_DIMRADIAL_EXTENSION
1070
   387
1070
     1
1070
   388
1040
0.0
1070
   390
1040
0.0
  0
ARC
  5
718
330
77
100
AcDbEntity
  8
MaVisibleEdge
100
AcDbCircle
 10
200.9158608821037
 20
1664.972908225895
 30
0.0
 40
10.00000000000003
100
AcDbArc
 50
90.00000000000019
 51
180.0
  0
ARC
  5
719
330
77
100
AcDbEntity
  8
MaVisibleEdge
100
AcDbCircle
 10
680.9158608821036
 20
1664.972908225895
 30
0.0
 40
10.00000000000002
100
AcDbArc
 50
0.0
 51
90.0
  0
LINE
  5
71A
330
77
100
AcDbEntity
  8
MaVisibleEdge
100
AcDbLine
 10
190.9158608821036
 20
1664.972908225895
 30
0.0
 11
190.9158608821036
 21
1636.472908225902
 31
0.0
  0
LINE
  5
71B
330
77
100
AcDbEntity
  8
MaVisibleEdge
100
AcDbLine
 10
690.9158608821036
 20
1636.472908225895
 30
0.0
 11
690.9158608821036
 21
1664.972908225895
 31
0.0
  0
LINE
  5
71C
330
77
100
AcDbEntity
  8
MaVisibleEdge
100
AcDbLine
 10
680.9158608821036
 20
1674.972908225895
 30
0.0
 11
200.9158608821036
 21
1674.972908225895
 31
0.0
  0
LINE
  5
71D
330
77
100
AcDbEntity
  8
MaVisibleEdge
100
AcDbLine
 10
194.426521053883
 20
1604.972908225778
 30
0.0
 11
193.3658608821049
 21
1604.972908225778
 31
0.0
  0
SPLINE
  5
71E
330
77
100
AcDbEntity
  8
MaVisibleEdge
100
AcDbSpline
210
0.0
220
0.0
230
1.0
 70
    24
 71
     3
 72
     8
 73
     4
 74
     0
 42
0.0000000001
 43
0.0000000001
 40
-0.3102065052588496
 40
-0.3102065052588496
 40
-0.3102065052588496
 40
-0.3102065052588496
 40
0.0
 40
0.0
 40
0.0
 40
0.0
 10
193.3658608821046
 20
1605.267604405773
 30
0.0
 10
193.3658608821047
 20
1605.169372345775
 30
0.0
 10
193.3658608821048
 20
1605.071140285776
 30
0.0
 10
193.3658608821049
 20
1604.972908225778
 30
0.0
  0
LINE
  5
71F
330
77
100
AcDbEntity
  8
MaVisibleEdge
100
AcDbLine
 10
190.9158608821036
 20
1607.422908225776
 30
0.0
 11
191.8658608821036
 21
1607.422908225776
 31
0.0
  0
SPLINE
  5
720
330
77
100
AcDbEntity
  8
MaVisibleEdge
100
AcDbSpline
210
0.0
220
0.0
230
1.0
 70
     8
 71
     3
 72
    10
 73
     6
 74
     0
 42
0.0000000001
 43
0.0000000001
 40
-1.0
 40
-1.0
 40
-1.0
 40
-1.0
 40
-0.75
 40
-0.75
 40
-0.6121396793595241
 40
-0.6121396793595241
 40
-0.6121396793595241
 40
-0.6121396793595241
 10
191.8658608821037
 20
1607.422908225777
 30
0.0
 10
191.8658608821036
 20
1607.152820620587
 30
0.0
 10
191.9367253190608
 20
1606.919387316755
 30
0.0
 10
192.0905260230734
 20
1606.624473886262
 30
0.0
 10
192.1538977334666
 20
1606.532211756777
 30
0.0
 10
192.2230363077638
 20
1606.450991550895
 30
0.0
  0
SPLINE
  5
721
330
77
100
AcDbEntity
  8
MaVisibleEdge
100
AcDbSpline
210
0.0
220
0.0
230
1.0
 70
     8
 71
     3
 72
    12
 73
     8
 74
     0
 42
0.0000000001
 43
0.0000000001
 40
0.0
 40
0.0
 40
0.0
 40
0.0
 40
0.5
 40
0.5
 40
0.75
 40
0.75
 40
1.0
 40
1.0
 40
1.0
 40
1.0
 10
193.3658608821049
 20
1604.972908225778
 30
0.0
 10
192.7684768029436
 20
1604.972908225777
 30
0.0
 10
192.2445627336703
 20
1605.165501394743
 30
0.0
 10
191.5641204126755
 20
1605.736520054138
 30
0.0
 10
191.3554441233625
 20
1605.979530164722
 30
0.0
 10
191.031606129134
 20
1606.60049074104
 30
0.0
 10
190.9158608821037
 20
1606.981765137299
 30
0.0
 10
190.9158608821037
 20
1607.422908225776
 30
0.0
  0
SPLINE
  5
722
330
77
100
AcDbEntity
  8
MaVisibleEdge
100
AcDbSpline
210
0.0
220
0.0
230
1.0
 70
     8
 71
     3
 72
    10
 73
     6
 74
     0
 42
0.0000000001
 43
0.0000000001
 40
0.6121396793595741
 40
0.6121396793595741
 40
0.6121396793595741
 40
0.6121396793595741
 40
0.75
 40
0.75
 40
1.0
 40
1.0
 40
1.0
 40
1.0
 10
689.6086854564434
 20
1606.450991550895
 30
0.0
 10
689.6778240307405
 20
1606.532211756777
 30
0.0
 10
689.7411957411336
 20
1606.624473886261
 30
0.0
 10
689.8949964451463
 20
1606.919387316754
 30
0.0
 10
689.9658608821036
 20
1607.152820620586
 30
0.0
 10
689.9658608821036
 20
1607.422908225776
 30
0.0
  0
SPLINE
  5
723
330
77
100
AcDbEntity
  8
MaVisibleEdge
100
AcDbSpline
210
0.0
220
0.0
230
1.0
 70
     8
 71
     3
 72
    12
 73
     8
 74
     0
 42
0.0000000001
 43
0.0000000001
 40
-1.0
 40
-1.0
 40
-1.0
 40
-1.0
 40
-0.75
 40
-0.75
 40
-0.5
 40
-0.5
 40
0.0
 40
0.0
 40
0.0
 40
0.0
 10
690.9158608821036
 20
1607.422908225776
 30
0.0
 10
690.9158608821036
 20
1606.981765137299
 30
0.0
 10
690.8001156350733
 20
1606.60049074104
 30
0.0
 10
690.4762776408448
 20
1605.979530164722
 30
0.0
 10
690.267601351532
 20
1605.736520054138
 30
0.0
 10
689.5871590305381
 20
1605.165501394744
 30
0.0
 10
689.0632449612657
 20
1604.972908225777
 30
0.0
 10
688.4658608821036
 20
1604.972908225778
 30
0.0
  0
LINE
  5
724
330
77
100
AcDbEntity
  8
MaVisibleEdge
100
AcDbLine
 10
687.4052007103239
 20
1604.972908225778
 30
0.0
 11
688.4658608821036
 21
1604.972908225778
 31
0.0
  0
SPLINE
  5
725
330
77
100
AcDbEntity
  8
MaVisibleEdge
100
AcDbSpline
210
0.0
220
0.0
230
1.0
 70
    24
 71
     3
 72
     8
 73
     4
 74
     0
 42
0.0000000001
 43
0.0000000001
 40
0.0
 40
0.0
 40
0.0
 40
0.0
 40
0.3102065052595258
 40
0.3102065052595258
 40
0.3102065052595258
 40
0.3102065052595258
 10
688.4658608821036
 20
1604.972908225778
 30
0.0
 10
688.4658608821036
 20
1605.071140285776
 30
0.0
 10
688.4658608821036
 20
1605.169372345775
 30
0.0
 10
688.4658608821036
 20
1605.267604405774
 30
0.0
  0
LINE
  5
726
330
77
100
AcDbEntity
  8
MaVisibleEdge
100
AcDbLine
 10
689.9658608821036
 20
1607.422908225776
 30
0.0
 11
690.9158608821036
 21
1607.422908225776
 31
0.0
  0
SPLINE
  5
727
330
77
100
AcDbEntity
  8
MaVisibleEdge
100
AcDbSpline
210
0.0
220
0.0
230
1.0
 70
     8
 71
     3
 72
    12
 73
     8
 74
     0
 42
0.0000000001
 43
0.0000000001
 40
0.0
 40
0.0
 40
0.0
 40
0.0
 40
0.5
 40
0.5
 40
0.75
 40
0.75
 40
1.0
 40
1.0
 40
1.0
 40
1.0
 10
687.4052007103236
 20
1604.972908225777
 30
0.0
 10
687.8577157922618
 20
1604.972908225778
 30
0.0
 10
688.415778975466
 20
1605.165501394744
 30
0.0
 10
689.1314987372039
 20
1605.73652005414
 30
0.0
 10
689.3498428222719
 20
1605.979530164724
 30
0.0
 10
689.6994564605567
 20
1606.600490741042
 30
0.0
 10
689.8307260137738
 20
1606.9817651373
 30
0.0
 10
689.8951502039849
 20
1607.422908225778
 30
0.0
  0
LINE
  5
728
330
77
100
AcDbEntity
  8
MaVisibleEdge
100
AcDbLine
 10
194.426521053883
 20
1604.972908225777
 30
0.0
 11
687.4052007103239
 21
1604.972908225777
 31
0.0
  0
SPLINE
  5
729
330
77
100
AcDbEntity
  8
MaVisibleEdge
100
AcDbSpline
210
0.0
220
0.0
230
1.0
 70
     8
 71
     3
 72
    12
 73
     8
 74
     0
 42
0.0000000001
 43
0.0000000001
 40
-1.0
 40
-1.0
 40
-1.0
 40
-1.0
 40
-0.75
 40
-0.75
 40
-0.5
 40
-0.5
 40
0.0
 40
0.0
 40
0.0
 40
0.0
 10
191.9365715602222
 20
1607.422908225778
 30
0.0
 10
192.0009957504334
 20
1606.9817651373
 30
0.0
 10
192.1322653036505
 20
1606.600490741042
 30
0.0
 10
192.4818789419354
 20
1605.979530164724
 30
0.0
 10
192.7002230270033
 20
1605.73652005414
 30
0.0
 10
193.415942788741
 20
1605.165501394744
 30
0.0
 10
193.974005971945
 20
1604.972908225778
 30
0.0
 10
194.426521053883
 20
1604.972908225777
 30
0.0
  0
LINE
  5
72A
330
77
100
AcDbEntity
  8
MaVisibleEdge
100
AcDbLine
 10
689.8951502039849
 20
1607.422908225776
 30
0.0
 11
689.8951502039849
 21
1632.522908225776
 31
0.0
  0
LINE
  5
72B
330
77
100
AcDbEntity
  8
MaVisibleEdge
100
AcDbLine
 10
191.9365715602223
 20
1632.522908225784
 30
0.0
 11
191.9365715602222
 21
1607.422908225776
 31
0.0
  0
LINE
  5
72C
330
77
100
AcDbEntity
  8
MaVisibleEdge
100
AcDbLine
 10
690.9158608821036
 20
1607.422908225776
 30
0.0
 11
690.9158608821036
 21
1632.522908225771
 31
0.0
  0
LINE
  5
72D
330
77
100
AcDbEntity
  8
MaVisibleEdge
100
AcDbLine
 10
689.9658608821036
 20
1632.522908225773
 30
0.0
 11
689.9658608821036
 21
1607.422908225776
 31
0.0
  0
SPLINE
  5
72E
330
77
100
AcDbEntity
  8
MaVisibleEdge
100
AcDbSpline
210
0.0
220
0.0
230
1.0
 70
    24
 71
     3
 72
     8
 73
     4
 74
     0
 42
0.0000000001
 43
0.0000000001
 40
0.0
 40
0.0
 40
0.0
 40
0.0
 40
1.0
 40
1.0
 40
1.0
 40
1.0
 10
690.9158608821036
 20
1632.522908225771
 30
0.0
 10
690.5991942154368
 20
1632.522908225771
 30
0.0
 10
690.2825275487702
 20
1632.522908225773
 30
0.0
 10
689.9658608821036
 20
1632.522908225773
 30
0.0
  0
LINE
  5
72F
330
77
100
AcDbEntity
  8
MaVisibleEdge
100
AcDbLine
 10
190.9158608821036
 20
1632.522908225771
 30
0.0
 11
190.9158608821036
 21
1607.422908225776
 31
0.0
  0
LINE
  5
730
330
77
100
AcDbEntity
  8
MaVisibleEdge
100
AcDbLine
 10
191.8658608821036
 20
1607.422908225776
 30
0.0
 11
191.8658608821037
 21
1632.522908225773
 31
0.0
  0
SPLINE
  5
731
330
77
100
AcDbEntity
  8
MaVisibleEdge
100
AcDbSpline
210
0.0
220
0.0
230
1.0
 70
    24
 71
     3
 72
     8
 73
     4
 74
     0
 42
0.0000000001
 43
0.0000000001
 40
-1.0
 40
-1.0
 40
-1.0
 40
-1.0
 40
0.0
 40
0.0
 40
0.0
 40
0.0
 10
191.8658608821037
 20
1632.522908225773
 30
0.0
 10
191.549194215437
 20
1632.522908225772
 30
0.0
 10
191.2325275487703
 20
1632.522908225771
 30
0.0
 10
190.9158608821036
 20
1632.522908225771
 30
0.0
  0
SPLINE
  5
732
330
77
100
AcDbEntity
  8
MaVisibleEdge
100
AcDbSpline
210
0.0
220
0.0
230
1.0
 70
     8
 71
     3
 72
    14
 73
    10
 74
     0
 42
0.0000000001
 43
0.0000000001
 40
-1.0
 40
-1.0
 40
-1.0
 40
-1.0
 40
-0.75
 40
-0.75
 40
-0.5
 40
-0.5
 40
-0.25
 40
-0.25
 40
0.0
 40
0.0
 40
0.0
 40
0.0
 10
190.9158608821037
 20
1636.472908225895
 30
0.0
 10
190.9957707988395
 20
1636.434483061502
 30
0.0
 10
191.1888507572075
 20
1636.275553928947
 30
0.0
 10
191.6781919759834
 20
1635.861390778263
 30
0.0
 10
191.9744532363914
 20
1635.610530497351
 30
0.0
 10
192.5469982780234
 20
1635.221067396746
 30
0.0
 10
192.8232820592474
 20
1635.08998291734
 30
0.0
 10
193.2327133612876
 20
1634.971027872781
 30
0.0
 10
193.3658608821036
 20
1634.972908225894
 30
0.0
 10
193.3658608821036
 20
1634.972908225894
 30
0.0
  0
SPLINE
  5
733
330
77
100
AcDbEntity
  8
MaVisibleEdge
100
AcDbSpline
210
0.0
220
0.0
230
1.0
 70
     8
 71
     3
 72
    12
 73
     8
 74
     0
 42
0.0000000001
 43
0.0000000001
 40
0.4933103487749386
 40
0.4933103487749386
 40
0.4933103487749386
 40
0.4933103487749386
 40
0.5
 40
0.5
 40
0.75
 40
0.75
 40
1.0
 40
1.0
 40
1.0
 40
1.0
 10
192.2836838806951
 20
1634.720987310796
 30
0.0
 10
192.2760391115973
 20
1634.729349073546
 30
0.0
 10
192.2683860104857
 20
1634.737785520907
 30
0.0
 10
191.9744532363913
 20
1635.064357935941
 30
0.0
 10
191.6781919759834
 20
1635.474096394763
 30
0.0
 10
191.1888507572075
 20
1636.150562874213
 30
0.0
 10
190.9957707988395
 20
1636.410147124054
 30
0.0
 10
190.9158608821036
 20
1636.472908225895
 30
0.0
  0
SPLINE
  5
734
330
77
100
AcDbEntity
  8
MaVisibleEdge
100
AcDbSpline
210
0.0
220
0.0
230
1.0
 70
     8
 71
     3
 72
    14
 73
    10
 74
     0
 42
0.0000000001
 43
0.0000000001
 40
0.0
 40
0.0
 40
0.0
 40
0.0
 40
0.25
 40
0.25
 40
0.5
 40
0.5
 40
0.75
 40
0.75
 40
1.0
 40
1.0
 40
1.0
 40
1.0
 10
193.3658608821037
 20
1634.972908225777
 30
0.0
 10
193.3658608821037
 20
1634.972908225777
 30
0.0
 10
193.2864429896268
 20
1634.978396150455
 30
0.0
 10
193.0432329671257
 20
1634.788757859267
 30
0.0
 10
192.8794408371016
 20
1634.575210845314
 30
0.0
 10
192.5419438869126
 20
1633.932587762857
 30
0.0
 10
192.3682390667477
 20
1633.516474010118
 30
0.0
 10
192.0853782836839
 20
1632.834632352407
 30
0.0
 10
191.976222320785
 20
1632.576289303647
 30
0.0
 10
191.9365715602223
 20
1632.522908225784
 30
0.0
  0
SPLINE
  5
735
330
77
100
AcDbEntity
  8
MaVisibleEdge
100
AcDbSpline
210
0.0
220
0.0
230
1.0
 70
     8
 71
     3
 72
    14
 73
    10
 74
     0
 42
0.0000000001
 43
0.0000000001
 40
-1.0
 40
-1.0
 40
-1.0
 40
-1.0
 40
-0.75
 40
-0.75
 40
-0.5
 40
-0.5
 40
-0.25
 40
-0.25
 40
0.0
 40
0.0
 40
0.0
 40
0.0
 10
190.9158608821036
 20
1632.522908225771
 30
0.0
 10
190.9158608821035
 20
1632.576289303635
 30
0.0
 10
190.9101669536002
 20
1632.834632352396
 30
0.0
 10
191.0986088815957
 20
1633.51647401011
 30
0.0
 10
191.3112446435415
 20
1633.93258776285
 30
0.0
 10
191.9528151493476
 20
1634.575210845311
 30
0.0
 10
192.36886338761
 20
1634.788757859266
 30
0.0
 10
193.0517627805993
 20
1634.978396150455
 30
0.0
 10
193.3111410589255
 20
1634.972908225777
 30
0.0
 10
193.3658608821037
 20
1634.972908225777
 30
0.0
  0
SPLINE
  5
736
330
77
100
AcDbEntity
  8
MaVisibleEdge
100
AcDbSpline
210
0.0
220
0.0
230
1.0
 70
     8
 71
     3
 72
    12
 73
     8
 74
     0
 42
0.0000000001
 43
0.0000000001
 40
0.4396607097208772
 40
0.4396607097208772
 40
0.4396607097208772
 40
0.4396607097208772
 40
0.5
 40
0.5
 40
0.75
 40
0.75
 40
1.0
 40
1.0
 40
1.0
 40
1.0
 10
192.4552692811901
 20
1633.713514275817
 30
0.0
 10
192.402533962653
 20
1633.673815444587
 30
0.0
 10
192.3517340447422
 20
1633.630178788876
 30
0.0
 10
192.1079325727799
 20
1633.385977330108
 30
0.0
 10
191.9777474124049
 20
1633.131213808021
 30
0.0
 10
191.8623748034281
 20
1632.71375973187
 30
0.0
 10
191.8658608821036
 20
1632.555590518343
 30
0.0
 10
191.8658608821037
 20
1632.522908225773
 30
0.0
  0
SPLINE
  5
737
330
77
100
AcDbEntity
  8
MaVisibleEdge
100
AcDbSpline
210
0.0
220
0.0
230
1.0
 70
     8
 71
     3
 72
    14
 73
    10
 74
     0
 42
0.0000000001
 43
0.0000000001
 40
0.0
 40
0.0
 40
0.0
 40
0.0
 40
0.25
 40
0.25
 40
0.5
 40
0.5
 40
0.75
 40
0.75
 40
1.0
 40
1.0
 40
1.0
 40
1.0
 10
688.4658608821036
 20
1634.972908225894
 30
0.0
 10
688.4658608821036
 20
1634.972908225894
 30
0.0
 10
688.5990084029195
 20
1634.971027872781
 30
0.0
 10
689.0084397049597
 20
1635.08998291734
 30
0.0
 10
689.2847234861838
 20
1635.221067396746
 30
0.0
 10
689.8572685278159
 20
1635.610530497351
 30
0.0
 10
690.1535297882239
 20
1635.861390778263
 30
0.0
 10
690.6428710069999
 20
1636.275553928947
 30
0.0
 10
690.8359509653678
 20
1636.434483061502
 30
0.0
 10
690.9158608821037
 20
1636.472908225895
 30
0.0
  0
SPLINE
  5
738
330
77
100
AcDbEntity
  8
MaVisibleEdge
100
AcDbSpline
210
0.0
220
0.0
230
1.0
 70
     8
 71
     3
 72
    12
 73
     8
 74
     0
 42
0.0000000001
 43
0.0000000001
 40
-1.0
 40
-1.0
 40
-1.0
 40
-1.0
 40
-0.75
 40
-0.75
 40
-0.5
 40
-0.5
 40
-0.4933103487749193
 40
-0.4933103487749193
 40
-0.4933103487749193
 40
-0.4933103487749193
 10
690.9158608821037
 20
1636.472908225895
 30
0.0
 10
690.8359509653679
 20
1636.410147124054
 30
0.0
 10
690.6428710069999
 20
1636.150562874214
 30
0.0
 10
690.1535297882239
 20
1635.474096394763
 30
0.0
 10
689.8572685278159
 20
1635.064357935941
 30
0.0
 10
689.5633357537215
 20
1634.737785520907
 30
0.0
 10
689.5556826526098
 20
1634.729349073546
 30
0.0
 10
689.548037883512
 20
1634.720987310796
 30
0.0
  0
SPLINE
  5
739
330
77
100
AcDbEntity
  8
MaVisibleEdge
100
AcDbSpline
210
0.0
220
0.0
230
1.0
 70
     8
 71
     3
 72
    14
 73
    10
 74
     0
 42
0.0000000001
 43
0.0000000001
 40
-1.0
 40
-1.0
 40
-1.0
 40
-1.0
 40
-0.75
 40
-0.75
 40
-0.5
 40
-0.5
 40
-0.25
 40
-0.25
 40
0.0
 40
0.0
 40
0.0
 40
0.0
 10
689.8951502039849
 20
1632.522908225784
 30
0.0
 10
689.8554994434221
 20
1632.576289303647
 30
0.0
 10
689.7463434805233
 20
1632.834632352407
 30
0.0
 10
689.4634826974595
 20
1633.516474010118
 30
0.0
 10
689.2897778772947
 20
1633.932587762857
 30
0.0
 10
688.9522809271056
 20
1634.575210845314
 30
0.0
 10
688.7884887970815
 20
1634.788757859267
 30
0.0
 10
688.5452787745805
 20
1634.978396150455
 30
0.0
 10
688.4658608821036
 20
1634.972908225777
 30
0.0
 10
688.4658608821036
 20
1634.972908225777
 30
0.0
  0
SPLINE
  5
73A
330
77
100
AcDbEntity
  8
MaVisibleEdge
100
AcDbSpline
210
0.0
220
0.0
230
1.0
 70
     8
 71
     3
 72
    14
 73
    10
 74
     0
 42
0.0000000001
 43
0.0000000001
 40
0.0
 40
0.0
 40
0.0
 40
0.0
 40
0.25
 40
0.25
 40
0.5
 40
0.5
 40
0.75
 40
0.75
 40
1.0
 40
1.0
 40
1.0
 40
1.0
 10
688.4658608821036
 20
1634.972908225777
 30
0.0
 10
688.5205807052816
 20
1634.972908225777
 30
0.0
 10
688.7799589836078
 20
1634.978396150455
 30
0.0
 10
689.4628583765971
 20
1634.788757859266
 30
0.0
 10
689.8789066148595
 20
1634.575210845311
 30
0.0
 10
690.5204771206656
 20
1633.932587762851
 30
0.0
 10
690.7331128826115
 20
1633.51647401011
 30
0.0
 10
690.9215548106069
 20
1632.834632352396
 30
0.0
 10
690.9158608821037
 20
1632.576289303635
 30
0.0
 10
690.9158608821036
 20
1632.522908225771
 30
0.0
  0
SPLINE
  5
73B
330
77
100
AcDbEntity
  8
MaVisibleEdge
100
AcDbSpline
210
0.0
220
0.0
230
1.0
 70
     8
 71
     3
 72
    12
 73
     8
 74
     0
 42
0.0000000001
 43
0.0000000001
 40
-1.0
 40
-1.0
 40
-1.0
 40
-1.0
 40
-0.75
 40
-0.75
 40
-0.5
 40
-0.5
 40
-0.4396607097208565
 40
-0.4396607097208565
 40
-0.4396607097208565
 40
-0.4396607097208565
 10
689.9658608821036
 20
1632.522908225773
 30
0.0
 10
689.9658608821038
 20
1632.555590518343
 30
0.0
 10
689.9693469607792
 20
1632.713759731871
 30
0.0
 10
689.8539743518024
 20
1633.131213808022
 30
0.0
 10
689.7237891914273
 20
1633.385977330108
 30
0.0
 10
689.4799877194651
 20
1633.630178788876
 30
0.0
 10
689.4291878015542
 20
1633.673815444588
 30
0.0
 10
689.376452483017
 20
1633.713514275817
 30
0.0
  0
LINE
  5
73C
330
77
100
AcDbEntity
  8
MaVisibleEdge
100
AcDbLine
 10
193.3658608821037
 20
1634.972908225777
 30
0.0
 11
688.4658608821036
 21
1634.972908225777
 31
0.0
  0
LINE
  5
73D
330
77
100
AcDbEntity
  8
MaVisibleEdge
100
AcDbLine
 10
620.5290584753499
 20
1459.922908225864
 30
0.0
 11
551.3026632888572
 21
1459.922908225864
 31
0.0
  0
ARC
  5
73E
330
77
100
AcDbEntity
  8
MaVisibleEdge
100
AcDbCircle
 10
551.3026632888572
 20
1461.422908225864
 30
0.0
 40
1.5
100
AcDbArc
 50
183.0000000000056
 51
270.0
  0
ARC
  5
73F
330
77
100
AcDbEntity
  8
MaVisibleEdge
100
AcDbCircle
 10
620.5290584753499
 20
1461.422908225864
 30
0.0
 40
1.5
100
AcDbArc
 50
270.0000000000054
 51
357.0000000000054
  0
LINE
  5
740
330
77
100
AcDbEntity
  8
MaVisibleEdge thinFlag
100
AcDbLine
 10
549.2161041854525
 20
1464.103687629293
 30
0.0
 11
622.6156175787547
 21
1464.103687629293
 31
0.0
  0
ARC
  5
741
330
77
100
AcDbEntity
  8
MaVisibleEdge
100
AcDbCircle
 10
549.1855799156851
 20
1463.604620230082
 30
0.0
 40
0.5
100
AcDbArc
 50
3.000000000005756
 51
86.50000000000614
  0
ARC
  5
742
330
77
100
AcDbEntity
  8
MaVisibleEdge
100
AcDbCircle
 10
622.6461418485221
 20
1463.604620230082
 30
0.0
 40
0.5
100
AcDbArc
 50
93.49999999999182
 51
176.9999999999942
  0
SPLINE
  5
743
330
77
100
AcDbEntity
  8
MaVisibleEdge thinFlag
100
AcDbSpline
210
0.0
220
0.0
230
1.0
 70
     8
 71
     3
 72
     8
 73
     4
 74
     0
 42
0.0000000001
 43
0.0000000001
 40
-1.506154616338157
 40
-1.506154616338157
 40
-1.506154616338157
 40
-1.506154616338157
 40
0.0
 40
0.0
 40
0.0
 40
0.0
 10
252.7320091297371
 20
1482.237434477467
 30
0.0
 10
251.4422192131601
 20
1482.316346195103
 30
0.0
 10
250.7874007630624
 20
1482.363212543289
 30
0.0
 10
250.7881419682882
 20
1482.377002607432
 30
0.0
  0
SPLINE
  5
744
330
77
100
AcDbEntity
  8
MaVisibleEdge thinFlag
100
AcDbSpline
210
0.0
220
0.0
230
1.0
 70
     8
 71
     3
 72
     8
 73
     4
 74
     0
 42
0.0000000001
 43
0.0000000001
 40
0.0
 40
0.0
 40
0.0
 40
0.0
 40
1.506454200035597
 40
1.506454200035597
 40
1.506454200035597
 40
1.506454200035597
 10
630.8218633390727
 20
1464.762925267308
 30
0.0
 10
630.8636718533799
 20
1464.663175732558
 30
0.0
 10
630.232961610218
 20
1464.569684524992
 30
0.0
 10
628.9395449304103
 20
1464.490485175967
 30
0.0
  0
SPLINE
  5
745
330
77
100
AcDbEntity
  8
MaVisibleEdge
100
AcDbSpline
210
0.0
220
0.0
230
1.0
 70
    24
 71
     3
 72
    14
 73
    10
 74
     0
 42
0.0000000001
 43
0.0000000001
 40
-16.02103858772046
 40
-16.02103858772046
 40
-16.02103858772046
 40
-16.02103858772046
 40
-10.33356988907969
 40
-10.33356988907969
 40
-5.206837541009148
 40
-5.206837541009148
 40
-2.002629823465057
 40
-2.002629823465057
 40
0.0
 40
0.0
 40
0.0
 40
0.0
 10
650.5613884540024
 20
1485.491028375555
 30
0.0
 10
650.5646749443587
 20
1485.867622869158
 30
0.0
 10
650.5729730298762
 20
1486.818489287247
 30
0.0
 10
650.5893894674143
 20
1488.699626704658
 30
0.0
 10
650.5978323831233
 20
1489.667089018913
 30
0.0
 10
650.6117804238879
 20
1491.265376182054
 30
0.0
 10
650.6172203422645
 20
1491.888729085646
 30
0.0
 10
650.6261230838431
 20
1492.90888222559
 30
0.0
 10
650.6295630101333
 20
1493.303058735719
 30
0.0
 10
650.6330139849175
 20
1493.698501277883
 30
0.0
  0
SPLINE
  5
746
330
77
100
AcDbEntity
  8
MaVisibleEdge
100
AcDbSpline
210
0.0
220
0.0
230
1.0
 70
    24
 71
     3
 72
    14
 73
    10
 74
     0
 42
0.0000000001
 43
0.0000000001
 40
-16.00213842831452
 40
-16.00213842831452
 40
-16.00213842831452
 40
-16.00213842831452
 40
-14.0018711247752
 40
-14.0018711247752
 40
-10.8014434391123
 40
-10.8014434391123
 40
-5.68075914205165
 40
-5.68075914205165
 40
0.0
 40
0.0
 40
0.0
 40
0.0
 10
231.0937890159979
 20
1505.721000736722
 30
0.0
 10
231.0954413141638
 20
1505.531666120271
 30
0.0
 10
231.0970196662675
 20
1505.350804883292
 30
0.0
 10
231.1009167909794
 20
1504.904238623175
 30
0.0
 10
231.1031115177162
 20
1504.652747849006
 30
0.0
 10
231.1082315017267
 20
1504.066055792564
 30
0.0
 10
231.1108034171409
 20
1503.771343477013
 30
0.0
 10
231.1148463704331
 20
1503.308066916736
 30
0.0
 10
231.116163684623
 20
1503.157117661928
 30
0.0
 10
231.1166175860015
 20
1503.105105715679
 30
0.0
  0
SPLINE
  5
747
330
77
100
AcDbEntity
  8
MaVisibleEdge thinFlag
100
AcDbSpline
210
0.0
220
0.0
230
1.0
 70
     8
 71
     3
 72
    10
 73
     6
 74
     0
 42
0.0000000001
 43
0.0000000001
 40
-1.0
 40
-1.0
 40
-1.0
 40
-1.0
 40
-0.6666666666666666
 40
-0.3333333333333333
 40
0.0
 40
0.0
 40
0.0
 40
0.0
 10
231.1166175860015
 20
1503.105105715679
 30
0.0
 10
231.1471088482083
 20
1499.611153138658
 30
0.0
 10
232.9928542387066
 20
1492.643180291584
 30
0.0
 10
240.438560207954
 20
1484.797557448891
 30
0.0
 10
247.3005472227461
 20
1482.590096220383
 30
0.0
 10
250.7881419682882
 20
1482.377002607432
 30
0.0
  0
SPLINE
  5
748
330
77
100
AcDbEntity
  8
MaVisibleEdge thinFlag
100
AcDbSpline
210
0.0
220
0.0
230
1.0
 70
     8
 71
     3
 72
    10
 73
     6
 74
     0
 42
0.0000000001
 43
0.0000000001
 40
0.0
 40
0.0
 40
0.0
 40
0.0
 40
0.3333333333333333
 40
0.6666666666666666
 40
1.0
 40
1.0
 40
1.0
 40
1.0
 10
630.8218633390725
 20
1464.762925267308
 30
0.0
 10
634.3176927761122
 20
1464.965063902084
 30
0.0
 10
641.2014379265608
 20
1467.158517491262
 30
0.0
 10
648.6770664014104
 20
1475.008533989807
 30
0.0
 10
650.5308370213963
 20
1481.990180953707
 30
0.0
 10
650.5613884540024
 20
1485.491028375555
 30
0.0
  0
SPLINE
  5
749
330
77
100
AcDbEntity
  8
MaVisibleEdge
100
AcDbSpline
210
0.0
220
0.0
230
1.0
 70
     8
 71
     3
 72
    34
 73
    30
 74
     0
 42
0.0000000001
 43
0.0000000001
 40
0.0
 40
0.0
 40
0.0
 40
0.0
 40
0.0051732543370024
 40
0.0051732543370024
 40
0.0110733289946701
 40
0.0110733289946701
 40
0.0190993524049586
 40
0.0190993524049586
 40
0.0322262346703508
 40
0.0322262346703508
 40
0.0589020556494193
 40
0.0589020556494193
 40
0.117741655810315
 40
0.117741655810315
 40
0.1715594502706268
 40
0.1715594502706268
 40
0.2298410599454821
 40
0.2298410599454821
 40
0.3177971908568392
 40
0.3177971908568392
 40
0.5112784205609224
 40
0.5112784205609224
 40
0.8125093438284892
 40
0.8125093438284892
 40
1.113740267096055
 40
1.113740267096055
 40
1.414971190363622
 40
1.414971190363622
 40
1.506154616337834
 40
1.506154616337834
 40
1.506154616337834
 40
1.506154616337834
 10
231.1166175860015
 20
1503.105105715681
 30
0.0
 10
231.1361194697687
 20
1500.870411179791
 30
0.0
 10
231.5306076097669
 20
1498.700183493759
 30
0.0
 10
232.8222750192178
 20
1494.709804939554
 30
0.0
 10
233.7537994982736
 20
1492.979035933932
 30
0.0
 10
235.9140635503524
 20
1489.759384527939
 30
0.0
 10
237.1212824889299
 20
1488.542308507009
 30
0.0
 10
239.8092419344859
 20
1486.151000282869
 30
0.0
 10
241.0298439804803
 20
1485.446889209054
 30
0.0
 10
243.9160824989065
 20
1483.861752370096
 30
0.0
 10
244.8716314108406
 20
1483.595675773281
 30
0.0
 10
247.2569160241114
 20
1482.823404209713
 30
0.0
 10
247.7647118696012
 20
1482.77756888299
 30
0.0
 10
248.6405448687432
 20
1482.613585339958
 30
0.0
 10
248.8941983832988
 20
1482.576241551037
 30
0.0
 10
249.3209381233624
 20
1482.514667700183
 30
0.0
 10
249.4763023804546
 20
1482.495249444854
 30
0.0
 10
249.8005933056879
 20
1482.456187603516
 30
0.0
 10
249.9337172947863
 20
1482.442314803593
 30
0.0
 10
250.2939198633605
 20
1482.405923973202
 30
0.0
 10
250.4420281985804
 20
1482.393737587715
 30
0.0
 10
250.7975722017671
 20
1482.364645577232
 30
0.0
 10
250.9749419535542
 20
1482.35177368606
 30
0.0
 10
251.3568319895928
 20
1482.324982284765
 30
0.0
 10
251.5562285572642
 20
1482.311659318419
 30
0.0
 10
251.9937125908634
 20
1482.283294261629
 30
0.0
 10
252.2311263927482
 20
1482.268316893987
 30
0.0
 10
252.5688988709457
 20
1482.247433572965
 30
0.0
 10
252.6493653408038
 20
1482.242486426517
 30
0.0
 10
252.7318504640931
 20
1482.237441420252
 30
0.0
  0
SPLINE
  5
74A
330
77
100
AcDbEntity
  8
MaVisibleEdge
100
AcDbSpline
210
0.0
220
0.0
230
1.0
 70
     8
 71
     3
 72
    26
 73
    22
 74
     0
 42
0.0000000001
 43
0.0000000001
 40
0.0
 40
0.0
 40
0.0
 40
0.0
 40
0.0373862592000922
 40
0.0373862592000922
 40
0.0784994756349047
 40
0.0784994756349047
 40
0.1323892782836216
 40
0.1323892782836216
 40
0.2148715534219397
 40
0.2148715534219397
 40
0.3428936036996197
 40
0.3428936036996197
 40
0.4896780317227588
 40
0.4896780317227588
 40
0.6761553391794524
 40
0.6761553391794524
 40
0.9774461791865773
 40
0.9774461791865773
 40
1.278737019193702
 40
1.278737019193702
 40
1.506454200035625
 40
1.506454200035625
 40
1.506454200035625
 40
1.506454200035625
 10
650.5613884540024
 20
1485.491028375554
 30
0.0
 10
650.5418358252717
 20
1483.25051904285
 30
0.0
 10
650.1416754229324
 20
1481.025285295384
 30
0.0
 10
648.7993302532323
 20
1476.964390971051
 30
0.0
 10
647.8354277672292
 20
1475.192991040044
 30
0.0
 10
645.604685372536
 20
1471.948518894036
 30
0.0
 10
644.3492337038117
 20
1470.704628868721
 30
0.0
 10
641.6237096770501
 20
1468.356204514893
 30
0.0
 10
640.3535191094565
 20
1467.632393443935
 30
0.0
 10
637.7786697838125
 20
1466.274575022597
 30
0.0
 10
636.7871529757037
 20
1465.943600046279
 30
0.0
 10
635.1023664630962
 20
1465.394555963202
 30
0.0
 10
634.4914724939829
 20
1465.24888558679
 30
0.0
 10
633.3450657261176
 20
1464.992011703286
 30
0.0
 10
632.8860471779389
 20
1464.913664969271
 30
0.0
 10
631.8537153791378
 20
1464.750394830957
 30
0.0
 10
631.3907135174302
 20
1464.697480859349
 30
0.0
 10
630.5376497631784
 20
1464.608445807721
 30
0.0
 10
630.1571764529064
 20
1464.576080690181
 30
0.0
 10
629.499329904057
 20
1464.526391606973
 30
0.0
 10
629.2208172215683
 20
1464.507678946065
 30
0.0
 10
628.939690989544
 20
1464.490484529121
 30
0.0
  0
LINE
  5
74B
330
77
100
AcDbEntity
  8
MaVisibleEdge
100
AcDbLine
 10
651.6040910228473
 20
1604.972908225812
 30
0.0
 11
650.6330139849185
 21
1493.698501277997
 31
0.0
  0
LINE
  5
74C
330
77
100
AcDbEntity
  8
MaVisibleEdge
100
AcDbLine
 10
230.2276307413599
 20
1604.972908225812
 30
0.0
 11
231.0937890159979
 21
1505.721000736722
 31
0.0
  0
LINE
  5
74D
330
77
100
AcDbEntity
  8
MaVisibleEdge
100
AcDbLine
 10
549.8047189867254
 20
1461.344404291499
 30
0.0
 11
549.6848946830624
 21
1463.630788208204
 31
0.0
  0
LINE
  5
74E
330
77
100
AcDbEntity
  8
MaVisibleEdge
100
AcDbLine
 10
622.0270027774818
 20
1461.344404291499
 30
0.0
 11
622.1468270811448
 21
1463.630788208204
 31
0.0
  0
LINE
  5
74F
330
77
100
AcDbEntity
  8
MaVisibleEdge
100
AcDbLine
 10
549.2161041854526
 20
1464.103687629293
 30
0.0
 11
252.7318504640943
 21
1482.237441420252
 31
0.0
  0
LINE
  5
750
330
77
100
AcDbEntity
  8
MaVisibleEdge
100
AcDbLine
 10
622.6156175787545
 20
1464.103687629293
 30
0.0
 11
628.9396909895441
 21
1464.490484529121
 31
0.0
  0
LINE
  5
751
330
77
100
AcDbEntity
  8
MaVisibleEdge
100
AcDbLine
 10
414.4158608821037
 20
1472.348423706676
 30
0.0
 11
414.4158608821036
 21
1464.064843021144
 31
0.0
  0
LINE
  5
752
330
77
100
AcDbEntity
  8
MaVisibleEdge
100
AcDbLine
 10
412.9158608821036
 20
1464.064843021144
 30
0.0
 11
412.9158608821037
 21
1472.440167636902
 31
0.0
  0
LINE
  5
753
330
77
100
AcDbEntity
  8
MaVisibleEdge
100
AcDbLine
 10
414.4158608821036
 20
1464.064843021144
 30
0.0
 11
412.9158608821036
 21
1464.064843021144
 31
0.0
  0
LINE
  5
754
330
77
100
AcDbEntity
  8
MaVisibleEdge
100
AcDbLine
 10
467.4158608821037
 20
1464.064843021144
 30
0.0
 11
467.4158608821037
 21
1469.106804838701
 31
0.0
  0
LINE
  5
755
330
77
100
AcDbEntity
  8
MaVisibleEdge
100
AcDbLine
 10
468.9158608821037
 20
1464.064843021144
 30
0.0
 11
467.4158608821037
 21
1464.064843021144
 31
0.0
  0
LINE
  5
756
330
77
100
AcDbEntity
  8
MaVisibleEdge
100
AcDbLine
 10
468.9158608821037
 20
1469.015060908476
 30
0.0
 11
468.9158608821037
 21
1464.064843021144
 31
0.0
  0
ELLIPSE
  5
757
330
77
100
AcDbEntity
  8
MaVisibleEdge
100
AcDbEllipse
 10
440.9158608821036
 20
1475.038244568356
 30
0.0
 11
-4.500000000000062
 21
0.0000000000009458
 31
0.0
210
0.0
220
0.0
230
1.0
 40
0.9999619230641737
 41
1.212532091076313
 42
1.806882874287097
  0
LINE
  5
758
330
77
100
AcDbEntity
  8
MaVisibleEdge
100
AcDbLine
 10
468.9158608821037
 20
1464.051753217897
 30
0.0
 11
468.9158608821037
 21
1464.064843021144
 31
0.0
  0
LINE
  5
759
330
77
100
AcDbEntity
  8
MaVisibleEdge
100
AcDbLine
 10
414.4158608821036
 20
1464.051753217897
 30
0.0
 11
414.4158608821036
 21
1464.064843021144
 31
0.0
  0
LINE
  5
75A
330
77
100
AcDbEntity
  8
MaVisibleEdge
100
AcDbLine
 10
412.9158608821036
 20
1464.064843021144
 30
0.0
 11
412.9158608821036
 21
1464.051753217897
 31
0.0
  0
LINE
  5
75B
330
77
100
AcDbEntity
  8
MaVisibleEdge
100
AcDbLine
 10
467.4158608821037
 20
1464.064843021144
 30
0.0
 11
467.4158608821037
 21
1464.051753217897
 31
0.0
  0
ELLIPSE
  5
75C
330
77
100
AcDbEntity
  8
MaVisibleEdge
100
AcDbEllipse
 10
465.9158608821036
 20
1464.051753217897
 30
0.0
 11
2.999999999999994
 21
0.0000000000000001
 31
0.0
210
0.0
220
0.0
230
1.0
 40
0.0087265354980773
 41
4.712388980384689
 42
6.283185307283624
  0
LINE
  5
75D
330
77
100
AcDbEntity
  8
MaVisibleEdge thinFlag
100
AcDbLine
 10
465.9158608821036
 20
1464.03866341465
 30
0.0
 11
465.9158608821036
 21
1469.198548768929
 31
0.0
  0
ELLIPSE
  5
75E
330
77
100
AcDbEntity
  8
MaVisibleEdge
100
AcDbEllipse
 10
465.9158608821036
 20
1464.051753217897
 30
0.0
 11
1.499999999999999
 21
0.0000000000000001
 31
0.0
210
0.0
220
0.0
230
1.0
 40
0.0087265354980773
 41
4.712388980488713
 42
6.283185307392189
  0
ELLIPSE
  5
75F
330
77
100
AcDbEntity
  8
MaVisibleEdge
100
AcDbEllipse
 10
415.9158608821035
 20
1464.051753217897
 30
0.0
 11
-2.999999999999993
 21
-0.0000000000000002
 31
0.0
210
0.0
220
0.0
230
1.0
 40
0.0087265354980773
 41
0.0000000001968871
 42
1.570796326894088
  0
ELLIPSE
  5
760
330
77
100
AcDbEntity
  8
MaVisibleEdge
100
AcDbEllipse
 10
415.9158608821035
 20
1464.051753217897
 30
0.0
 11
-1.5
 21
-0.0000000000000001
 31
0.0
210
0.0
220
0.0
230
1.0
 40
0.0087265354980773
 41
0.0
 42
1.570796326794896
  0
LINE
  5
761
330
77
100
AcDbEntity
  8
MaVisibleEdge thinFlag
100
AcDbLine
 10
415.9158608821035
 20
1472.256679776454
 30
0.0
 11
415.9158608821035
 21
1464.03866341465
 31
0.0
  0
LINE
  5
762
330
77
100
AcDbEntity
  8
MaVisibleEdge
100
AcDbLine
 10
465.9158608821036
 20
1464.03866341465
 30
0.0
 11
415.9158608821035
 21
1464.03866341465
 31
0.0
  0
LINE
  5
763
330
77
100
AcDbEntity
  8
MaVisibleEdge
100
AcDbLine
 10
415.9158608821035
 20
1464.025573611403
 30
0.0
 11
465.9158608821036
 21
1464.025573611403
 31
0.0
  0
CIRCLE
  5
764
330
77
100
AcDbEntity
  8
MaVisibleEdge
100
AcDbCircle
 10
207.8658608821036
 20
1590.022908225894
 30
0.0
 40
4.5
  0
ARC
  5
765
330
77
100
AcDbEntity
  8
MaVisibleEdge
100
AcDbCircle
 10
193.3658608821035
 20
1627.522908225894
 30
0.0
 40
1.499999999999947
100
AcDbArc
 50
162.337364329202
 51
180.0
  0
LINE
  5
766
330
77
100
AcDbEntity
  8
MaVisibleEdge
100
AcDbLine
 10
223.8658608821036
 20
1604.972908225894
 30
0.0
 11
223.8658608821036
 21
1579.022908225894
 31
0.0
  0
LINE
  5
767
330
77
100
AcDbEntity
  8
MaVisibleEdge
100
AcDbLine
 10
191.8658608821035
 20
1579.022908225894
 30
0.0
 11
191.8658608821035
 21
1605.485771163113
 31
0.0
  0
LINE
  5
768
330
77
100
AcDbEntity
  8
MaVisibleEdge
100
AcDbLine
 10
218.8658608821036
 20
1574.022908225894
 30
0.0
 11
196.8658608821035
 21
1574.022908225894
 31
0.0
  0
ARC
  5
769
330
77
100
AcDbEntity
  8
MaVisibleEdge
100
AcDbCircle
 10
196.8658608821035
 20
1579.022908225894
 30
0.0
 40
4.999999999999995
100
AcDbArc
 50
180.0
 51
270.0
  0
ARC
  5
76A
330
77
100
AcDbEntity
  8
MaVisibleEdge
100
AcDbCircle
 10
218.8658608821036
 20
1579.022908225894
 30
0.0
 40
5.000000000000003
100
AcDbArc
 50
270.0
 51
0.0
  0
CIRCLE
  5
76B
330
77
100
AcDbEntity
  8
MaVisibleEdge
100
AcDbCircle
 10
673.9658608821037
 20
1590.022908225894
 30
0.0
 40
4.499999999999998
  0
ARC
  5
76C
330
77
100
AcDbEntity
  8
MaVisibleEdge
100
AcDbCircle
 10
688.4658608821037
 20
1627.522908225894
 30
0.0
 40
1.499999999999934
100
AcDbArc
 50
0.0
 51
17.6626356707976
  0
LINE
  5
76D
330
77
100
AcDbEntity
  8
MaVisibleEdge
100
AcDbLine
 10
689.9658608821036
 20
1605.485771163113
 30
0.0
 11
689.9658608821036
 21
1579.022908225894
 31
0.0
  0
LINE
  5
76E
330
77
100
AcDbEntity
  8
MaVisibleEdge
100
AcDbLine
 10
657.9658608821037
 20
1579.022908225894
 30
0.0
 11
657.9658608821037
 21
1604.972908225894
 31
0.0
  0
LINE
  5
76F
330
77
100
AcDbEntity
  8
MaVisibleEdge
100
AcDbLine
 10
684.9658608821036
 20
1574.022908225894
 30
0.0
 11
662.9658608821037
 21
1574.022908225894
 31
0.0
  0
ARC
  5
770
330
77
100
AcDbEntity
  8
MaVisibleEdge
100
AcDbCircle
 10
662.9658608821037
 20
1579.022908225894
 30
0.0
 40
4.999999999999994
100
AcDbArc
 50
180.0
 51
270.0
  0
ARC
  5
771
330
77
100
AcDbEntity
  8
MaVisibleEdge
100
AcDbCircle
 10
684.9658608821036
 20
1579.022908225894
 30
0.0
 40
5.000000000000003
100
AcDbArc
 50
270.0
 51
0.0
  0
DIMENSION
  5
772
330
77
100
AcDbEntity
  8
Bemaßungen(DIN)
  6
Continuous
 62
     7
370
    30
100
AcDbDimension
  2
*D16
 10
799.4790643816059
 20
1604.972908225777
 30
0.0
 11
738.9104428255331
 21
1539.796627367185
 31
0.0
 70
   160
  1
<>
 71
     4
 42
30.00000000000023
  3
MarketingDrawing
100
AcDbAlignedDimension
 13
688.4658608821036
 23
1634.972908225777
 33
0.0
 14
687.4052007103239
 24
1604.972908225777
 34
0.0
 50
270.0
100
AcDbRotatedDimension
1001
ACAD
1000
DSTYLE
1002
{
1070
   289
1070
     1
1070
   271
1070
     0
1070
   272
1070
     4
1070
    48
1040
0.0
1070
    47
1040
0.0
1002
}
  0
DIMENSION
  5
870
330
77
100
AcDbEntity
  8
Bemaßungen(DIN)
  6
Continuous
 62
     7
370
    30
100
AcDbDimension
  2
*D17
 10
677.7524624856193
 20
1634.972908225777
 30
0.0
 11
738.9104428255332
 21
1755.466810942681
 31
0.0
 70
   160
  1
<>
 71
     4
 42
40.00000000011778
  3
MarketingDrawing
100
AcDbAlignedDimension
 13
680.9158608821036
 23
1674.972908225895
 33
0.0
 14
688.4658608821036
 24
1634.972908225777
 34
0.0
 50
90.0
100
AcDbRotatedDimension
1001
ACAD
1000
DSTYLE
1002
{
1070
   289
1070
     1
1070
   271
1070
     0
1070
   272
1070
     4
1070
    48
1040
0.0
1070
    47
1040
0.0
1002
}
  0
DIMENSION
  5
96E
330
77
100
AcDbEntity
  8
Bemaßungen(DIN)
  6
Continuous
 62
     7
370
    30
100
AcDbDimension
  2
*D18
 10
834.780673697344
 20
1459.922908225864
 30
0.0
 11
834.7806736973439
 21
1567.447908225879
 31
0.0
 70
   160
  1
<>
 71
     4
 42
215.0500000000311
  3
MarketingDrawing
100
AcDbAlignedDimension
 13
680.9158608821036
 23
1674.972908225895
 33
0.0
 14
620.5290584753499
 24
1459.922908225864
 34
0.0
 50
90.0
100
AcDbRotatedDimension
1001
ACAD
1000
DSTYLE
1002
{
1070
   289
1070
     1
1070
   271
1070
     0
1070
   272
1070
     4
1070
    48
1040
0.0
1070
    47
1040
0.0
1002
}
  0
DIMENSION
  5
A5E
330
77
100
AcDbEntity
  8
Bemaßungen(DIN)
  6
Continuous
 62
     7
370
    30
100
AcDbDimension
  2
*D19
 10
673.9658608821037
 20
1362.692376728134
 30
0.0
 11
440.9158608821036
 21
1362.692376728134
 31
0.0
 70
   160
  1
<>
 71
     4
 42
466.1000000000001
  3
MarketingDrawing
100
AcDbAlignedDimension
 13
207.8658608821036
 23
1590.022908225894
 33
0.0
 14
673.9658608821037
 24
1590.022908225894
 34
0.0
 50
180.0
100
AcDbRotatedDimension
1001
ACAD
1000
DSTYLE
1002
{
1070
   289
1070
     1
1070
    73
1070
     0
1070
    74
1070
     0
1070
   271
1070
     0
1070
   272
1070
     4
1070
    48
1040
0.0
1070
    47
1040
0.0
1002
}
  0
LINE
  5
B48
330
77
100
AcDbEntity
  8
MaCenterline
  6
Continuous
100
AcDbLine
 10
440.9158608821036
 20
1450.538244568356
 30
0.0
 11
440.9158608821036
 21
1514.991932618758
 31
0.0
  0
LINE
  5
B49
330
77
100
AcDbEntity
  8
MaCenterline
  6
Continuous
100
AcDbLine
 10
416.4158608821036
 20
1475.038244568356
 30
0.0
 11
465.4158608821036
 21
1475.038244568356
 31
0.0
  0
LINE
  5
B4A
330
77
100
AcDbEntity
  8
MaVisibleEdge
100
AcDbLine
 10
1042.173969666148
 20
1674.972908225862
 30
0.0
 11
1042.173969666142
 21
1664.972908225862
 31
0.0
  0
LINE
  5
B4B
330
77
100
AcDbEntity
  8
MaVisibleEdge
100
AcDbLine
 10
1042.173969666148
 20
1674.972908225862
 30
0.0
 11
1041.223969666148
 21
1674.972908225862
 31
0.0
  0
LINE
  5
B4C
330
77
100
AcDbEntity
  8
MaVisibleEdge
100
AcDbLine
 10
1041.223969666142
 20
1664.972908225862
 30
0.0
 11
1041.223969666148
 21
1674.972908225862
 31
0.0
  0
LINE
  5
B4D
330
77
100
AcDbEntity
  8
MaVisibleEdge thinFlag
100
AcDbLine
 10
1041.223969666142
 20
1664.972908225862
 30
0.0
 11
1042.173969666142
 21
1664.972908225862
 31
0.0
  0
LINE
  5
B4E
330
77
100
AcDbEntity
  8
MaVisibleEdge
100
AcDbLine
 10
1041.223969666134
 20
1636.472908225869
 30
0.0
 11
1041.223969666142
 21
1664.972908225862
 31
0.0
  0
LINE
  5
B4F
330
77
100
AcDbEntity
  8
MaVisibleEdge
100
AcDbLine
 10
1042.173969666142
 20
1664.972908225862
 30
0.0
 11
1042.173969666134
 21
1636.472908225869
 31
0.0
  0
LINE
  5
B50
330
77
100
AcDbEntity
  8
MaVisibleEdge
100
AcDbLine
 10
1041.223969666134
 20
1636.472908225869
 30
0.0
 11
1042.173969666134
 21
1636.472908225869
 31
0.0
  0
LINE
  5
B51
330
77
100
AcDbEntity
  8
MaVisibleEdge
100
AcDbLine
 10
1440.273969666131
 20
1632.522908225751
 30
0.0
 11
1441.223969666131
 21
1632.522908225751
 31
0.0
  0
SPLINE
  5
B52
330
77
100
AcDbEntity
  8
MaVisibleEdge
100
AcDbSpline
210
0.0
220
0.0
230
1.0
 70
     8
 71
     3
 72
    14
 73
    10
 74
     0
 42
0.0000000001
 43
0.0000000001
 40
0.0
 40
0.0
 40
0.0
 40
0.0
 40
0.25
 40
0.25
 40
0.5
 40
0.5
 40
0.75
 40
0.75
 40
1.0
 40
1.0
 40
1.0
 40
1.0
 10
1043.673969666135
 20
1634.972908225861
 30
0.0
 10
1043.673969666135
 20
1634.972908225861
 30
0.0
 10
1043.596137709234
 20
1634.978449851203
 30
0.0
 10
1043.357807816982
 20
1634.788913141594
 30
0.0
 10
1043.19730988163
 20
1634.575374262338
 30
0.0
 10
1042.866645967829
 20
1633.932592761493
 30
0.0
 10
1042.696479989378
 20
1633.516329082803
 30
0.0
 10
1042.419477924728
 20
1632.834368322358
 30
0.0
 10
1042.312641838529
 20
1632.576061068914
 30
0.0
 10
1042.273969666132
 20
1632.522908225856
 30
0.0
  0
SPLINE
  5
B53
330
77
100
AcDbEntity
  8
MaVisibleEdge
100
AcDbSpline
210
0.0
220
0.0
230
1.0
 70
     8
 71
     3
 72
    14
 73
    10
 74
     0
 42
0.0000000001
 43
0.0000000001
 40
-1.0
 40
-1.0
 40
-1.0
 40
-1.0
 40
-0.75
 40
-0.75
 40
-0.5
 40
-0.5
 40
-0.25
 40
-0.25
 40
0.0
 40
0.0
 40
0.0
 40
0.0
 10
1042.173969666134
 20
1636.472908225862
 30
0.0
 10
1042.173969666134
 20
1636.434483061469
 30
0.0
 10
1042.171539664923
 20
1636.275553928914
 30
0.0
 10
1042.28750255931
 20
1635.86139077823
 30
0.0
 10
1042.41633624522
 20
1635.610530497318
 30
0.0
 10
1042.803204653881
 20
1635.221067396713
 30
0.0
 10
1043.053902134568
 20
1635.089982917306
 30
0.0
 10
1043.470692619529
 20
1634.971027872748
 30
0.0
 10
1043.632202266817
 20
1634.972908225861
 30
0.0
 10
1043.673969666135
 20
1634.972908225861
 30
0.0
  0
SPLINE
  5
B54
330
77
100
AcDbEntity
  8
MaVisibleEdge
100
AcDbSpline
210
0.0
220
0.0
230
1.0
 70
     8
 71
     3
 72
    12
 73
     8
 74
     0
 42
0.0000000001
 43
0.0000000001
 40
0.2580580251192339
 40
0.2580580251192339
 40
0.2580580251192339
 40
0.2580580251192339
 40
0.5
 40
0.5
 40
0.75
 40
0.75
 40
1.0
 40
1.0
 40
1.0
 40
1.0
 10
1042.968448313358
 20
1634.126741411635
 30
0.0
 10
1042.634893546157
 20
1634.22804030872
 30
0.0
 10
1042.241536654627
 20
1634.438486662848
 30
0.0
 10
1041.619835078641
 20
1635.064357935908
 30
0.0
 10
1041.409406724987
 20
1635.47409639473
 30
0.0
 10
1041.220000664155
 20
1636.15056287418
 30
0.0
 10
1041.223969666134
 20
1636.410147124021
 30
0.0
 10
1041.223969666134
 20
1636.472908225862
 30
0.0
  0
SPLINE
  5
B55
330
77
100
AcDbEntity
  8
MaVisibleEdge
100
AcDbSpline
210
0.0
220
0.0
230
1.0
 70
     8
 71
     3
 72
    14
 73
    10
 74
     0
 42
0.0000000001
 43
0.0000000001
 40
0.0
 40
0.0
 40
0.0
 40
0.0
 40
0.25
 40
0.25
 40
0.5
 40
0.5
 40
0.75
 40
0.75
 40
1.0
 40
1.0
 40
1.0
 40
1.0
 10
1438.773969666134
 20
1634.972908225744
 30
0.0
 10
1438.828689489312
 20
1634.972908225744
 30
0.0
 10
1439.088067767638
 20
1634.978396150422
 30
0.0
 10
1439.770967160625
 20
1634.788757859234
 30
0.0
 10
1440.187015398886
 20
1634.57521084528
 30
0.0
 10
1440.828585904691
 20
1633.932587762824
 30
0.0
 10
1441.041221666638
 20
1633.516474010086
 30
0.0
 10
1441.229663594635
 20
1632.834632352374
 30
0.0
 10
1441.223969666133
 20
1632.576289303615
 30
0.0
 10
1441.223969666133
 20
1632.522908225751
 30
0.0
  0
SPLINE
  5
B56
330
77
100
AcDbEntity
  8
MaVisibleEdge
100
AcDbSpline
210
0.0
220
0.0
230
1.0
 70
     8
 71
     3
 72
    12
 73
     8
 74
     0
 42
0.0000000001
 43
0.0000000001
 40
-1.0
 40
-1.0
 40
-1.0
 40
-1.0
 40
-0.75
 40
-0.75
 40
-0.5
 40
-0.5
 40
-0.43966070971931
 40
-0.43966070971931
 40
-0.43966070971931
 40
-0.43966070971931
 10
1440.273969666133
 20
1632.522908225748
 30
0.0
 10
1440.273969666133
 20
1632.555590518318
 30
0.0
 10
1440.277455744808
 20
1632.713759731845
 30
0.0
 10
1440.16208313583
 20
1633.131213807994
 30
0.0
 10
1440.031897975455
 20
1633.385977330078
 30
0.0
 10
1439.788096503491
 20
1633.630178788847
 30
0.0
 10
1439.737296585579
 20
1633.673815444559
 30
0.0
 10
1439.68456126704
 20
1633.713514275789
 30
0.0
  0
SPLINE
  5
B57
330
77
100
AcDbEntity
  8
MaVisibleEdge
100
AcDbSpline
210
0.0
220
0.0
230
1.0
 70
     8
 71
     3
 72
    14
 73
    10
 74
     0
 42
0.0000000001
 43
0.0000000001
 40
-1.0
 40
-1.0
 40
-1.0
 40
-1.0
 40
-0.75
 40
-0.75
 40
-0.5
 40
-0.5
 40
-0.25
 40
-0.25
 40
0.0
 40
0.0
 40
0.0
 40
0.0
 10
1440.203258988012
 20
1632.522908225738
 30
0.0
 10
1440.16360822745
 20
1632.576289303602
 30
0.0
 10
1440.054452264551
 20
1632.834632352363
 30
0.0
 10
1439.771591481488
 20
1633.516474010077
 30
0.0
 10
1439.597886661323
 20
1633.932587762817
 30
0.0
 10
1439.260389711135
 20
1634.575210845278
 30
0.0
 10
1439.096597581112
 20
1634.788757859233
 30
0.0
 10
1438.853387558611
 20
1634.978396150422
 30
0.0
 10
1438.773969666134
 20
1634.972908225744
 30
0.0
 10
1438.773969666134
 20
1634.972908225744
 30
0.0
  0
LINE
  5
B58
330
77
100
AcDbEntity
  8
MaVisibleEdge
100
AcDbLine
 10
1043.673969666135
 20
1634.972908225861
 30
0.0
 11
1438.773969666134
 21
1634.972908225744
 31
0.0
  0
LINE
  5
B59
330
77
100
AcDbEntity
  8
MaVisibleEdge
100
AcDbLine
 10
1044.273969666124
 20
1604.972908225861
 30
0.0
 11
1437.713309494352
 21
1604.972908225744
 31
0.0
  0
SPLINE
  5
B5A
330
77
100
AcDbEntity
  8
MaVisibleEdge
100
AcDbSpline
210
0.0
220
0.0
230
1.0
 70
     8
 71
     3
 72
    12
 73
     8
 74
     0
 42
0.0000000001
 43
0.0000000001
 40
0.0
 40
0.0
 40
0.0
 40
0.0
 40
0.5
 40
0.5
 40
0.75
 40
0.75
 40
1.0
 40
1.0
 40
1.0
 40
1.0
 10
1437.713309494352
 20
1604.972908225744
 30
0.0
 10
1438.16582457629
 20
1604.972908225744
 30
0.0
 10
1438.723887759492
 20
1605.16550139471
 30
0.0
 10
1439.439607521227
 20
1605.736520054105
 30
0.0
 10
1439.657951606294
 20
1605.979530164689
 30
0.0
 10
1440.007565244578
 20
1606.600490741007
 30
0.0
 10
1440.138834797794
 20
1606.981765137266
 30
0.0
 10
1440.203258988005
 20
1607.422908225743
 30
0.0
  0
LINE
  5
B5B
330
77
100
AcDbEntity
  8
MaVisibleEdge
100
AcDbLine
 10
1042.273969666124
 20
1605.485771163081
 30
0.0
 11
1042.273969666124
 21
1607.422908225862
 31
0.0
  0
SPLINE
  5
B5C
330
77
100
AcDbEntity
  8
MaVisibleEdge
100
AcDbSpline
210
0.0
220
0.0
230
1.0
 70
     8
 71
     3
 72
    10
 73
     6
 74
     0
 42
0.0000000001
 43
0.0000000001
 40
0.6121396793596922
 40
0.6121396793596922
 40
0.6121396793596922
 40
0.6121396793596922
 40
0.75
 40
0.75
 40
1.0
 40
1.0
 40
1.0
 40
1.0
 10
1439.916794240466
 20
1606.450991550862
 30
0.0
 10
1439.985932814763
 20
1606.532211756744
 30
0.0
 10
1440.049304525156
 20
1606.624473886229
 30
0.0
 10
1440.203105229169
 20
1606.919387316721
 30
0.0
 10
1440.273969666126
 20
1607.152820620553
 30
0.0
 10
1440.273969666126
 20
1607.422908225743
 30
0.0
  0
SPLINE
  5
B5D
330
77
100
AcDbEntity
  8
MaVisibleEdge
100
AcDbSpline
210
0.0
220
0.0
230
1.0
 70
     8
 71
     3
 72
    12
 73
     8
 74
     0
 42
0.0000000001
 43
0.0000000001
 40
-1.0
 40
-1.0
 40
-1.0
 40
-1.0
 40
-0.75
 40
-0.75
 40
-0.5
 40
-0.5
 40
0.0
 40
0.0
 40
0.0
 40
0.0
 10
1441.223969666126
 20
1607.422908225744
 30
0.0
 10
1441.223969666126
 20
1606.981765137267
 30
0.0
 10
1441.108224419096
 20
1606.600490741009
 30
0.0
 10
1440.784386424868
 20
1605.979530164691
 30
0.0
 10
1440.575710135556
 20
1605.736520054106
 30
0.0
 10
1439.895267814563
 20
1605.165501394712
 30
0.0
 10
1439.371353745291
 20
1604.972908225744
 30
0.0
 10
1438.773969666129
 20
1604.972908225744
 30
0.0
  0
LINE
  5
B5E
330
77
100
AcDbEntity
  8
MaVisibleEdge
100
AcDbLine
 10
1438.773969666133
 20
1604.972908225744
 30
0.0
 11
1437.713309494353
 21
1604.972908225744
 31
0.0
  0
SPLINE
  5
B5F
330
77
100
AcDbEntity
  8
MaVisibleEdge
100
AcDbSpline
210
0.0
220
0.0
230
1.0
 70
    24
 71
     3
 72
     8
 73
     4
 74
     0
 42
0.0000000001
 43
0.0000000001
 40
-1.0
 40
-1.0
 40
-1.0
 40
-1.0
 40
0.0
 40
0.0
 40
0.0
 40
0.0
 10
1440.273969666126
 20
1607.422908225743
 30
0.0
 10
1440.590636332793
 20
1607.422908225744
 30
0.0
 10
1440.907302999459
 20
1607.422908225744
 30
0.0
 10
1441.223969666126
 20
1607.422908225744
 30
0.0
  0
LINE
  5
B60
330
77
100
AcDbEntity
  8
MaVisibleEdge
100
AcDbLine
 10
1438.773969666133
 20
1604.972908225744
 30
0.0
 11
1438.773969666133
 21
1605.267604405741
 31
0.0
  0
LINE
  5
B61
330
77
100
AcDbEntity
  8
MaVisibleEdge
100
AcDbLine
 10
1440.203258988012
 20
1632.522908225738
 30
0.0
 11
1440.203258988005
 21
1607.422908225744
 31
0.0
  0
LINE
  5
B62
330
77
100
AcDbEntity
  8
MaVisibleEdge
100
AcDbLine
 10
1042.273969666124
 20
1607.422908225862
 30
0.0
 11
1042.273969666132
 21
1632.522908225856
 31
0.0
  0
LINE
  5
B63
330
77
100
AcDbEntity
  8
MaVisibleEdge
100
AcDbLine
 10
1441.223969666131
 20
1632.522908225751
 30
0.0
 11
1441.223969666125
 21
1607.422908225743
 31
0.0
  0
LINE
  5
B64
330
77
100
AcDbEntity
  8
MaVisibleEdge
100
AcDbLine
 10
1440.273969666126
 20
1607.422908225744
 30
0.0
 11
1440.273969666131
 21
1632.522908225751
 31
0.0
  0
LINE
  5
B65
330
77
100
AcDbEntity
  8
MaVisibleEdge
100
AcDbLine
 10
1180.837167259445
 20
1459.92290822582
 30
0.0
 11
1111.610772072952
 21
1459.922908225841
 31
0.0
  0
ARC
  5
B66
330
77
100
AcDbEntity
  8
MaVisibleEdge
100
AcDbCircle
 10
1111.610772072953
 20
1461.422908225841
 30
0.0
 40
1.5
100
AcDbArc
 50
182.9999999999838
 51
269.9999999999838
  0
ARC
  5
B67
330
77
100
AcDbEntity
  8
MaVisibleEdge
100
AcDbCircle
 10
1180.837167259445
 20
1461.42290822582
 30
0.0
 40
1.5
100
AcDbArc
 50
269.9999999999838
 51
356.9999999999835
  0
LINE
  5
B68
330
77
100
AcDbEntity
  8
MaVisibleEdge thinFlag
100
AcDbLine
 10
1109.524212969549
 20
1464.103687629271
 30
0.0
 11
1182.923726362851
 21
1464.103687629249
 31
0.0
  0
ARC
  5
B69
330
77
100
AcDbEntity
  8
MaVisibleEdge
100
AcDbCircle
 10
1109.493688699781
 20
1463.60462023006
 30
0.0
 40
0.5
100
AcDbArc
 50
3.000000000005756
 51
86.49999999998991
  0
ARC
  5
B6A
330
77
100
AcDbEntity
  8
MaVisibleEdge
100
AcDbCircle
 10
1182.954250632618
 20
1463.604620230039
 30
0.0
 40
0.5
100
AcDbArc
 50
93.49999999997562
 51
176.9999999999618
  0
SPLINE
  5
B6B
330
77
100
AcDbEntity
  8
MaVisibleEdge thinFlag
100
AcDbSpline
210
0.0
220
0.0
230
1.0
 70
     8
 71
     3
 72
     8
 73
     4
 74
     0
 42
0.0000000001
 43
0.0000000001
 40
-9.196521165526908
 40
-9.196521165526908
 40
-9.196521165526908
 40
-9.196521165526908
 40
-7.690001044866885
 40
-7.690001044866885
 40
-7.690001044866885
 40
-7.690001044866885
 10
1381.297025904258
 20
1476.266279349438
 30
0.0
 10
1381.298605846841
 20
1476.246603718167
 30
0.0
 10
1380.642943898056
 20
1476.196757722141
 30
0.0
 10
1379.352517611219
 20
1476.117792548029
 30
0.0
  0
SPLINE
  5
B6C
330
77
100
AcDbEntity
  8
MaVisibleEdge thinFlag
100
AcDbSpline
210
0.0
220
0.0
230
1.0
 70
     8
 71
     3
 72
     8
 73
     4
 74
     0
 42
0.0000000001
 43
0.0000000001
 40
7.658335849814416
 40
7.658335849814416
 40
7.658335849814416
 40
7.658335849814416
 40
9.173056784252718
 40
9.173056784252718
 40
9.173056784252718
 40
9.173056784252718
 10
1103.20017313406
 20
1464.490486582854
 30
0.0
 10
1101.906871579814
 20
1464.569623106729
 30
0.0
 10
1101.27592926884
 20
1464.662628352534
 30
0.0
 10
1101.317967209227
 20
1464.762925267293
 30
0.0
  0
SPLINE
  5
B6D
330
77
100
AcDbEntity
  8
MaVisibleEdge
100
AcDbSpline
210
0.0
220
0.0
230
1.0
 70
    24
 71
     3
 72
     8
 73
     4
 74
     0
 42
0.0000000001
 43
0.0000000001
 40
-26.03878511162375
 40
-26.03878511162375
 40
-26.03878511162375
 40
-26.03878511162375
 40
-17.82557639773687
 40
-17.82557639773687
 40
-17.82557639773687
 40
-17.82557639773687
 10
1081.454465998026
 20
1499.697281887947
 30
0.0
 10
1081.468871778372
 20
1498.046542964839
 30
0.0
 10
1081.483241542592
 20
1496.399931081036
 30
0.0
 10
1081.497469827615
 20
1494.769531107553
 30
0.0
  0
SPLINE
  5
B6E
330
77
100
AcDbEntity
  8
MaVisibleEdge
100
AcDbSpline
210
0.0
220
0.0
230
1.0
 70
    24
 71
     3
 72
    12
 73
     8
 74
     0
 42
0.0000000001
 43
0.0000000001
 40
-8.569107582572421
 40
-8.569107582572421
 40
-8.569107582572421
 40
-8.569107582572421
 40
-8.462605161277718
 40
-8.462605161277718
 40
-3.254848138952969
 40
-3.254848138952969
 40
-0.0000000000000002
 40
-0.0000000000000002
 40
-0.0000000000000002
 40
-0.0000000000000002
 10
1081.544558753049
 20
1489.373674708969
 30
0.0
 10
1081.54473221586
 20
1489.353797839637
 30
0.0
 10
1081.544905556067
 20
1489.333935019324
 30
0.0
 10
1081.553548700549
 20
1488.343528760826
 30
0.0
 10
1081.561823663728
 20
1487.3953119008
 30
0.0
 10
1081.57289727917
 20
1486.126401256175
 30
0.0
 10
1081.576561287989
 20
1485.706547431845
 30
0.0
 10
1081.578442094303
 20
1485.491028375546
 30
0.0
  0
SPLINE
  5
B6F
330
77
100
AcDbEntity
  8
MaVisibleEdge
100
AcDbSpline
210
0.0
220
0.0
230
1.0
 70
    24
 71
     3
 72
    14
 73
    10
 74
     0
 42
0.0000000001
 43
0.0000000001
 40
-26.01154996434308
 40
-26.01154996434308
 40
-26.01154996434308
 40
-26.01154996434308
 40
-22.76010621880019
 40
-22.76010621880019
 40
-17.55779622593157
 40
-17.55779622593157
 40
-9.234100237341786
 40
-9.234100237341786
 40
0.0
 40
0.0
 40
0.0
 40
0.0
 10
1400.96988548833
 20
1496.994382457679
 30
0.0
 10
1400.97025607379
 20
1497.036847345706
 30
0.0
 10
1400.971028383683
 20
1497.12534529417
 30
0.0
 10
1400.974025139266
 20
1497.46873947213
 30
0.0
 10
1400.976844931556
 20
1497.791855664846
 30
0.0
 10
1400.986273237973
 20
1498.872232571626
 30
0.0
 10
1400.994119673035
 20
1499.771344974721
 30
0.0
 10
1401.013352368164
 20
1501.97519354979
 30
0.0
 10
1401.02501586032
 20
1503.311697372636
 30
0.0
 10
1401.037522136751
 20
1504.744774708029
 30
0.0
  0
SPLINE
  5
B70
330
77
100
AcDbEntity
  8
MaVisibleEdge thinFlag
100
AcDbSpline
210
0.0
220
0.0
230
1.0
 70
     8
 71
     3
 72
    10
 73
     6
 74
     0
 42
0.0000000001
 43
0.0000000001
 40
0.0
 40
0.0
 40
0.0
 40
0.0
 40
0.3333333333333333
 40
0.6666666666666666
 40
1.0
 40
1.0
 40
1.0
 40
1.0
 10
1101.317967209227
 20
1464.762925267293
 30
0.0
 10
1097.822137772187
 20
1464.965063902069
 30
0.0
 10
1090.938392621739
 20
1467.15851749125
 30
0.0
 10
1083.462764146892
 20
1475.008533989797
 30
0.0
 10
1081.608993526908
 20
1481.990180953697
 30
0.0
 10
1081.578442094303
 20
1485.491028375546
 30
0.0
  0
SPLINE
  5
B71
330
77
100
AcDbEntity
  8
MaVisibleEdge thinFlag
100
AcDbSpline
210
0.0
220
0.0
230
1.0
 70
     8
 71
     3
 72
    10
 73
     6
 74
     0
 42
0.0000000001
 43
0.0000000001
 40
0.0
 40
0.0
 40
0.0
 40
0.0
 40
0.3333333333333333
 40
0.6666666666666666
 40
1.0
 40
1.0
 40
1.0
 40
1.0
 10
1400.96988548833
 20
1496.994382457679
 30
0.0
 10
1400.939393047428
 20
1493.500294815669
 30
0.0
 10
1399.093490247292
 20
1486.532054102361
 30
0.0
 10
1391.647197129519
 20
1478.686345101096
 30
0.0
 10
1384.784782683214
 20
1476.479158266003
 30
0.0
 10
1381.297025904258
 20
1476.266279349438
 30
0.0
  0
SPLINE
  5
B72
330
77
100
AcDbEntity
  8
MaVisibleEdge
100
AcDbSpline
210
0.0
220
0.0
230
1.0
 70
     8
 71
     3
 72
    26
 73
    22
 74
     0
 42
0.0000000001
 43
0.0000000001
 40
7.658335849814395
 40
7.658335849814395
 40
7.658335849814395
 40
7.658335849814395
 40
7.96128003670206
 40
7.96128003670206
 40
8.264224223589724
 40
8.264224223589724
 40
8.567168410477389
 40
8.567168410477389
 40
8.699801015355557
 40
8.699801015355557
 40
8.879211288405045
 40
8.879211288405045
 40
9.022276660198855
 40
9.022276660198855
 40
9.069295045226411
 40
9.069295045226411
 40
9.102266595396026
 40
9.102266595396026
 40
9.153111155892757
 40
9.153111155892757
 40
9.15848482717617
 40
9.15848482717617
 40
9.15848482717617
 40
9.15848482717617
 10
1103.20013955876
 20
1464.490484529101
 30
0.0
 10
1102.8285503004
 20
1464.513211901762
 30
0.0
 10
1102.462662567353
 20
1464.538433272247
 30
0.0
 10
1101.704580860116
 20
1464.600007628741
 30
0.0
 10
1101.314547448483
 20
1464.635588405181
 30
0.0
 10
1100.406773913227
 20
1464.739081720733
 30
0.0
 10
1099.904504584946
 20
1464.800360844874
 30
0.0
 10
1098.828274169896
 20
1464.992719893096
 30
0.0
 10
1098.451123438204
 20
1465.06560747274
 30
0.0
 10
1097.318096954364
 20
1465.329373167934
 30
0.0
 10
1096.512570394415
 20
1465.514668578712
 30
0.0
 10
1093.993174102538
 20
1466.479278342235
 30
0.0
 10
1092.492965780314
 20
1466.981833623891
 30
0.0
 10
1089.064102936643
 20
1469.574360344711
 30
0.0
 10
1088.091744965215
 20
1470.39756323197
 30
0.0
 10
1086.28273729799
 20
1472.389416665334
 30
0.0
 10
1085.492276523076
 20
1473.385828697226
 30
0.0
 10
1083.549718653216
 20
1476.518011566862
 30
0.0
 10
1082.435018750798
 20
1479.039630557537
 30
0.0
 10
1081.854148252156
 20
1482.265222680652
 30
0.0
 10
1081.805257698265
 20
1482.577173136514
 30
0.0
 10
1081.763251982308
 20
1482.891792862568
 30
0.0
  0
SPLINE
  5
B73
330
77
100
AcDbEntity
  8
MaVisibleEdge
100
AcDbSpline
210
0.0
220
0.0
230
1.0
 70
     8
 71
     3
 72
    32
 73
    28
 74
     0
 42
0.0000000001
 43
0.0000000001
 40
7.690001044867252
 40
7.690001044867252
 40
7.690001044867252
 40
7.690001044867252
 40
7.991305068999183
 40
7.991305068999183
 40
8.292609093131115
 40
8.292609093131115
 40
8.593913117263046
 40
8.593913117263046
 40
8.895217141394976
 40
8.895217141394976
 40
8.960380734548698
 40
8.960380734548698
 40
9.043089487558884
 40
9.043089487558884
 40
9.106496811805218
 40
9.106496811805218
 40
9.14243580278358
 40
9.14243580278358
 40
9.166038874164311
 40
9.166038874164311
 40
9.176691087588055
 40
9.176691087588055
 40
9.183457744417328
 40
9.183457744417328
 40
9.193661074395761
 40
9.193661074395761
 40
9.196521165526908
 40
9.196521165526908
 40
9.196521165526908
 40
9.196521165526908
 10
1379.352748817193
 20
1476.117801316097
 30
0.0
 10
1379.631550666586
 20
1476.134853567709
 30
0.0
 10
1379.889332048837
 20
1476.151022631027
 30
0.0
 10
1380.36965786796
 20
1476.182182471828
 30
0.0
 10
1380.591618316821
 20
1476.197111635374
 30
0.0
 10
1381.020389476792
 20
1476.227618955755
 30
0.0
 10
1381.223582548954
 20
1476.242731417081
 30
0.0
 10
1381.694654816562
 20
1476.282214050772
 30
0.0
 10
1381.906035996682
 20
1476.29601466181
 30
0.0
 10
1382.602700810303
 20
1476.380963855671
 30
0.0
 10
1382.747651652493
 20
1476.399416663842
 30
0.0
 10
1383.180332324454
 20
1476.461282285829
 30
0.0
 10
1383.478731112858
 20
1476.503694030237
 30
0.0
 10
1384.43219922705
 20
1476.690012897211
 30
0.0
 10
1384.943831047866
 20
1476.779166099665
 30
0.0
 10
1386.671779582538
 20
1477.298771167825
 30
0.0
 10
1387.468466282514
 20
1477.52861343636
 30
0.0
 10
1389.878931860473
 20
1478.660587070268
 30
0.0
 10
1391.134007665803
 20
1479.246394060658
 30
0.0
 10
1393.93669560319
 20
1481.476755670069
 30
0.0
 10
1394.957072311293
 20
1482.381543867465
 30
0.0
 10
1396.802481626591
 20
1484.586344290638
 30
0.0
 10
1397.562370296864
 20
1485.627538515058
 30
0.0
 10
1399.382019517927
 20
1488.868306154296
 30
0.0
 10
1400.396152766997
 20
1491.451931747228
 30
0.0
 10
1400.900438686174
 20
1495.267145155029
 30
0.0
 10
1400.962320026748
 20
1496.127466427396
 30
0.0
 10
1400.96988548833
 20
1496.994382457679
 30
0.0
  0
LINE
  5
B74
330
77
100
AcDbEntity
  8
MaVisibleEdge
100
AcDbLine
 10
1080.535739525417
 20
1604.97290822585
 30
0.0
 11
1081.454465998025
 21
1499.697281887947
 31
0.0
  0
LINE
  5
B75
330
77
100
AcDbEntity
  8
MaVisibleEdge
100
AcDbLine
 10
1401.912199806904
 20
1604.972908225755
 30
0.0
 11
1401.037522136751
 21
1504.744774708029
 31
0.0
  0
LINE
  5
B76
330
77
100
AcDbEntity
  8
MaVisibleEdge
100
AcDbLine
 10
1110.112827770821
 20
1461.344404291477
 30
0.0
 11
1109.993003467159
 21
1463.630788208182
 31
0.0
  0
LINE
  5
B77
330
77
100
AcDbEntity
  8
MaVisibleEdge
100
AcDbLine
 10
1182.335111561578
 20
1461.344404291456
 30
0.0
 11
1182.454935865241
 21
1463.63078820816
 31
0.0
  0
LINE
  5
B78
330
77
100
AcDbEntity
  8
MaVisibleEdge
100
AcDbLine
 10
1109.524212969549
 20
1464.103687629271
 30
0.0
 11
1103.20013955876
 21
1464.490484529101
 31
0.0
  0
LINE
  5
B79
330
77
100
AcDbEntity
  8
MaVisibleEdge
100
AcDbLine
 10
1182.923726362851
 20
1464.103687629249
 30
0.0
 11
1379.352748817192
 21
1476.117801316097
 31
0.0
  0
LINE
  5
B7A
330
77
100
AcDbEntity
  8
MaVisibleEdge
100
AcDbLine
 10
1081.151864582313
 20
1534.371969645785
 30
0.0
 11
1079.651921697717
 21
1534.358879842538
 31
0.0
  0
LINE
  5
B7B
330
77
100
AcDbEntity
  8
MaVisibleEdge
100
AcDbLine
 10
1079.67810130421
 20
1531.358994073346
 30
0.0
 11
1079.651921697717
 21
1534.358879842538
 31
0.0
  0
LINE
  5
B7C
330
77
100
AcDbEntity
  8
MaVisibleEdge thinFlag
100
AcDbLine
 10
1079.67810130421
 20
1531.358994073346
 30
0.0
 11
1081.178044188807
 21
1531.372083876593
 31
0.0
  0
LINE
  5
B7D
330
77
100
AcDbEntity
  8
MaVisibleEdge thinFlag
100
AcDbLine
 10
1081.518379073232
 20
1492.37356887709
 30
0.0
 11
1080.018436188635
 21
1492.360479073843
 31
0.0
  0
LINE
  5
B7E
330
77
100
AcDbEntity
  8
MaVisibleEdge
100
AcDbLine
 10
1080.04461579513
 20
1489.36059330465
 30
0.0
 11
1080.018436188635
 21
1492.360479073843
 31
0.0
  0
LINE
  5
B7F
330
77
100
AcDbEntity
  8
MaVisibleEdge
100
AcDbLine
 10
1081.518379073232
 20
1492.37356887709
 30
0.0
 11
1081.544558679727
 21
1489.373683107897
 31
0.0
  0
LINE
  5
B80
330
77
100
AcDbEntity
  8
MaVisibleEdge
100
AcDbLine
 10
1080.04461579513
 20
1489.36059330465
 30
0.0
 11
1081.544558679727
 21
1489.373683107897
 31
0.0
  0
LINE
  5
B81
330
77
100
AcDbEntity
  8
MaVisibleEdge
100
AcDbLine
 10
1080.018436188635
 20
1492.360479073843
 30
0.0
 11
1079.67810130421
 21
1531.358994073346
 31
0.0
  0
LINE
  5
B82
330
77
100
AcDbEntity
  8
MaVisibleEdge
100
AcDbLine
 10
1081.518379073232
 20
1492.37356887709
 30
0.0
 11
1081.497469174502
 21
1494.769605946967
 31
0.0
  0
LINE
  5
B83
330
77
100
AcDbEntity
  8
MaVisibleEdge
100
AcDbLine
 10
1078.544672910539
 20
1489.347503501403
 30
0.0
 11
1080.044615795135
 21
1489.36059330465
 31
0.0
  0
LINE
  5
B84
330
77
100
AcDbEntity
  8
MaVisibleEdge
100
AcDbLine
 10
1071.54493944909
 20
1489.286417752916
 30
0.0
 11
1078.544672910539
 21
1489.347503501403
 31
0.0
  0
LINE
  5
B85
330
77
100
AcDbEntity
  8
MaVisibleEdge
100
AcDbLine
 10
1046.264073798405
 20
1464.064843021111
 30
0.0
 11
1071.54493944909
 21
1489.286417752916
 31
0.0
  0
LINE
  5
B86
330
77
100
AcDbEntity
  8
MaVisibleEdge
100
AcDbLine
 10
1078.151978813125
 20
1534.345790039291
 30
0.0
 11
1079.651921697721
 21
1534.358879842538
 31
0.0
  0
LINE
  5
B87
330
77
100
AcDbEntity
  8
MaVisibleEdge
100
AcDbLine
 10
1044.153273428944
 20
1534.049087832356
 30
0.0
 11
1078.151978813125
 21
1534.345790039291
 31
0.0
  0
LINE
  5
B88
330
77
100
AcDbEntity
  8
MaVisibleEdge
100
AcDbLine
 10
1046.264073798405
 20
1464.064843021111
 30
0.0
 11
1044.764130913809
 21
1464.051753217864
 31
0.0
  0
LINE
  5
B89
330
77
100
AcDbEntity
  8
MaVisibleEdge
100
AcDbLine
 10
1044.153273428944
 20
1534.049087832356
 30
0.0
 11
1041.153387659752
 21
1534.022908225862
 31
0.0
  0
LINE
  5
B8A
330
77
100
AcDbEntity
  8
MaVisibleEdge
100
AcDbLine
 10
1041.764245144617
 20
1464.02557361137
 30
0.0
 11
1041.153387659752
 21
1534.022908225862
 31
0.0
  0
LINE
  5
B8B
330
77
100
AcDbEntity
  8
MaVisibleEdge
100
AcDbLine
 10
1041.764245144618
 20
1464.02557361137
 30
0.0
 11
1044.764130913809
 21
1464.051753217864
 31
0.0
  0
LINE
  5
B8C
330
77
100
AcDbEntity
  8
MaVisibleEdge
100
AcDbLine
 10
1042.273969666116
 20
1574.022908225862
 30
0.0
 11
1042.273969666116
 21
1579.022908225862
 31
0.0
  0
LINE
  5
B8D
330
77
100
AcDbEntity
  8
MaVisibleEdge
100
AcDbLine
 10
1044.273969666116
 20
1579.022908225861
 30
0.0
 11
1044.273969666116
 21
1574.022908225861
 31
0.0
  0
LINE
  5
B8E
330
77
100
AcDbEntity
  8
MaVisibleEdge
100
AcDbLine
 10
1042.273969666116
 20
1574.022908225862
 30
0.0
 11
1044.273969666116
 21
1574.022908225861
 31
0.0
  0
LINE
  5
B8F
330
77
100
AcDbEntity
  8
MaVisibleEdge thinFlag
100
AcDbLine
 10
1044.273969666116
 20
1579.022908225861
 30
0.0
 11
1042.273969666116
 21
1579.022908225862
 31
0.0
  0
LINE
  5
B90
330
77
100
AcDbEntity
  8
MaVisibleEdge
100
AcDbLine
 10
1042.273969666124
 20
1605.485771163081
 30
0.0
 11
1042.273969666116
 21
1579.022908225862
 31
0.0
  0
LINE
  5
B91
330
77
100
AcDbEntity
  8
MaVisibleEdge
100
AcDbLine
 10
1044.273969666116
 20
1579.022908225861
 30
0.0
 11
1044.273969666124
 21
1605.48577116308
 31
0.0
  0
LINE
  5
B92
330
77
100
AcDbEntity
  8
MaCenterline
  6
Continuous
100
AcDbLine
 10
1064.273969666124
 20
1590.022908225855
 30
0.0
 11
1022.273969666124
 21
1590.022908225867
 31
0.0
  0
LINE
  5
B93
330
77
100
AcDbEntity
  8
MaCenterline
  6
Continuous
100
AcDbLine
 10
1063.167434600025
 20
1475.212775278286
 30
0.0
 11
1021.669014792862
 21
1474.850624055113
 31
0.0
  0
DIMENSION
  5
B94
330
77
100
AcDbEntity
  8
Bemaßungen(DIN)
  6
Continuous
 62
     7
370
    30
100
AcDbDimension
  2
*D20
 10
1481.036832367433
 20
1465.054640082989
 30
0.0
 11
1481.036832367433
 21
1550.013774154367
 31
0.0
 70
   160
  1
<>
 71
     4
 42
169.9182681427549
  3
MarketingDrawing
100
AcDbAlignedDimension
 13
1438.773969666134
 23
1634.972908225744
 33
0.0
 14
1182.91027371871
 24
1465.054640082989
 34
0.0
 50
270.0
100
AcDbRotatedDimension
1001
ACAD
1000
DSTYLE
1002
{
1070
   289
1070
     1
1070
   271
1070
     0
1070
   272
1070
     4
1070
    48
1040
0.0
1070
    47
1040
0.0
1002
}
  0
DIMENSION
  5
C84
330
77
100
AcDbEntity
  8
Bemaßungen(DIN)
  6
Continuous
 62
     7
370
    30
100
AcDbDimension
  2
*D21
 10
1146.223969666199
 20
1379.922908225831
 30
0.0
 11
1216.792045254784
 21
1379.922908225831
 31
0.0
 70
   160
  1
<>
 71
     4
 42
105.0000000000645
  3
MarketingDrawing
100
AcDbAlignedDimension
 13
1041.223969666134
 23
1636.472908225869
 33
0.0
 14
1146.223969666199
 24
1459.922908225831
 34
0.0
100
AcDbRotatedDimension
1001
ACAD
1000
DSTYLE
1002
{
1070
   289
1070
     2
1070
    73
1070
     0
1070
    74
1070
     0
1070
   271
1070
     0
1070
   272
1070
     4
1070
    48
1040
0.0
1070
    47
1040
0.0
1002
}
  0
DIMENSION
  5
D6E
330
77
100
AcDbEntity
  8
Bemaßungen(DIN)
  6
Continuous
 62
     7
370
    30
100
AcDbDimension
  2
*D22
 10
1053.887708052053
 20
1475.031699666699
 30
0.0
 11
983.3196324634679
 21
1430.746446456121
 31
0.0
 70
   160
  1
<>
 71
     4
 42
114.9912085591679
  3
MarketingDrawing
100
AcDbAlignedDimension
 13
1022.273969666124
 23
1590.022908225867
 33
0.0
 14
1042.418224696444
 24
1475.031699666699
 34
0.0
 50
90.0
100
AcDbRotatedDimension
1001
ACAD
1000
DSTYLE
1002
{
1070
   289
1070
     2
1070
   271
1070
     0
1070
   272
1070
     4
1070
    48
1040
0.0
1070
    47
1040
0.0
1002
}
  0
LINE
  5
E6C
330
77
100
AcDbEntity
  8
MaCenterline
  6
Continuous
100
AcDbLine
 10
698.4658608821036
 20
1590.022908225894
 30
0.0
 11
649.4658608821037
 21
1590.022908225894
 31
0.0
  0
LINE
  5
E6D
330
77
100
AcDbEntity
  8
MaCenterline
  6
Continuous
100
AcDbLine
 10
673.9658608821037
 20
1614.522908225894
 30
0.0
 11
673.9658608821037
 21
1565.522908225894
 31
0.0
  0
LINE
  5
E6E
330
77
100
AcDbEntity
  8
MaCenterline
  6
Continuous
100
AcDbLine
 10
232.3658608821036
 20
1590.022908225894
 30
0.0
 11
183.3658608821035
 21
1590.022908225894
 31
0.0
  0
LINE
  5
E6F
330
77
100
AcDbEntity
  8
MaCenterline
  6
Continuous
100
AcDbLine
 10
207.8658608821036
 20
1614.522908225894
 30
0.0
 11
207.8658608821036
 21
1565.522908225894
 31
0.0
  0
LINE
  5
E70
330
77
100
AcDbEntity
  8
MaCenterline
  6
Continuous
100
AcDbLine
 10
1146.223969666193
 20
1441.344404291466
 30
0.0
 11
1146.223969666206
 21
1483.630788208171
 31
0.0
  0
LINE
  5
E71
330
77
100
AcDbEntity
  8
MaCenterline
  6
Continuous
100
AcDbLine
 10
642.6021649343545
 20
857.1540932907414
 30
0.0
 11
529.2295568293347
 21
857.1540932907414
 31
0.0
  0
LINE
  5
E72
330
77
100
AcDbEntity
  8
MaCenterline
  6
Continuous
100
AcDbLine
 10
585.9158608818446
 20
913.8403973432513
 30
0.0
 11
585.9158608818446
 21
800.4677892382314
 31
0.0
  0
DIMENSION
  5
E73
330
77
100
AcDbEntity
  8
Bemaßungen(DIN)
  6
Continuous
 62
     7
370
    30
100
AcDbDimension
  2
*D23
 10
983.3196324634757
 20
1674.972908225862
 30
0.0
 11
983.3196324634755
 21
1632.497908225878
 31
0.0
 70
   160
  1
<>
 71
     4
 42
84.94999999999482
  3
MarketingDrawing
100
AcDbAlignedDimension
 13
1022.273969666124
 23
1590.022908225867
 33
0.0
 14
1041.223969666148
 24
1674.972908225862
 34
0.0
 50
90.0
100
AcDbRotatedDimension
1001
ACAD
1000
DSTYLE
1002
{
1070
   289
1070
     1
1070
   271
1070
     0
1070
   272
1070
     4
1070
    48
1040
0.0
1070
    47
1040
0.0
1002
}
  0
ENDSEC
  0
SECTION
  2
OBJECTS
  0
DICTIONARY
  5
C
330
0
100
AcDbDictionary
281
     1
  3
ACAD_COLOR
350
6E
  3
ACAD_GROUP
350
D
  3
ACAD_LAYOUT
350
6D
  3
ACAD_MATERIAL
350
10
  3
ACAD_MLEADERSTYLE
350
71
  3
ACAD_MLINESTYLE
350
6A
  3
ACAD_PLOTSETTINGS
350
6C
  3
ACAD_PLOTSTYLENAME
350
E
  3
ACAD_SCALELIST
350
3D
  3
ACAD_TABLESTYLE
350
6F
  3
ACAD_VISUALSTYLE
350
29
  3
ACDB_RECOMPOSE_DATA
350
FE5
  3
AcDbVariableDictionary
350
F64
  0
DICTIONARY
  5
F6F
330
104
100
AcDbDictionary
280
     1
281
     1
  3
ACAD_MLATT
360
F71
  3
ACAD_XREC_ROUNDTRIP
360
F70
  0
DICTIONARY
  5
F73
330
243
100
AcDbDictionary
280
     1
281
     1
  3
ACAD_MLATT
360
F75
  3
ACAD_XREC_ROUNDTRIP
360
F74
  0
DICTIONARY
  5
F76
330
245
100
AcDbDictionary
280
     1
281
     1
  3
ACAD_MLATT
360
F78
  3
ACAD_XREC_ROUNDTRIP
360
F77
  0
DICTIONARY
  5
F79
330
246
100
AcDbDictionary
280
     1
281
     1
  3
ACAD_MLATT
360
F7B
  3
ACAD_XREC_ROUNDTRIP
360
F7A
  0
DICTIONARY
  5
F7C
330
248
100
AcDbDictionary
280
     1
281
     1
  3
ACAD_MLATT
360
F7E
  3
ACAD_XREC_ROUNDTRIP
360
F7D
  0
DICTIONARY
  5
F7F
330
249
100
AcDbDictionary
280
     1
281
     1
  3
ACAD_MLATT
360
F81
  3
ACAD_XREC_ROUNDTRIP
360
F80
  0
DICTIONARY
  5
F82
330
24B
100
AcDbDictionary
280
     1
281
     1
  3
ACAD_MLATT
360
F84
  3
ACAD_XREC_ROUNDTRIP
360
F83
  0
DICTIONARY
  5
F85
330
24C
100
AcDbDictionary
280
     1
281
     1
  3
ACAD_MLATT
360
F87
  3
ACAD_XREC_ROUNDTRIP
360
F86
  0
DICTIONARY
  5
F88
330
24D
100
AcDbDictionary
280
     1
281
     1
  3
ACAD_MLATT
360
F8A
  3
ACAD_XREC_ROUNDTRIP
360
F89
  0
DICTIONARY
  5
F8B
330
24E
100
AcDbDictionary
280
     1
281
     1
  3
ACAD_MLATT
360
F8D
  3
ACAD_XREC_ROUNDTRIP
360
F8C
  0
DICTIONARY
  5
F8E
330
24F
100
AcDbDictionary
280
     1
281
     1
  3
ACAD_MLATT
360
F90
  3
ACAD_XREC_ROUNDTRIP
360
F8F
  0
DICTIONARY
  5
F91
330
250
100
AcDbDictionary
280
     1
281
     1
  3
ACAD_MLATT
360
F93
  3
ACAD_XREC_ROUNDTRIP
360
F92
  0
DICTIONARY
  5
F94
330
251
100
AcDbDictionary
280
     1
281
     1
  3
ACAD_MLATT
360
F96
  3
ACAD_XREC_ROUNDTRIP
360
F95
  0
DICTIONARY
  5
F97
330
252
100
AcDbDictionary
280
     1
281
     1
  3
ACAD_MLATT
360
F99
  3
ACAD_XREC_ROUNDTRIP
360
F98
  0
DICTIONARY
  5
F9A
330
253
100
AcDbDictionary
280
     1
281
     1
  3
ACAD_MLATT
360
F9C
  3
ACAD_XREC_ROUNDTRIP
360
F9B
  0
DICTIONARY
  5
F9D
330
254
100
AcDbDictionary
280
     1
281
     1
  3
ACAD_MLATT
360
F9F
  3
ACAD_XREC_ROUNDTRIP
360
F9E
  0
DICTIONARY
  5
FA0
330
255
100
AcDbDictionary
280
     1
281
     1
  3
ACAD_MLATT
360
FA2
  3
ACAD_XREC_ROUNDTRIP
360
FA1
  0
DICTIONARY
  5
FA3
330
256
100
AcDbDictionary
280
     1
281
     1
  3
ACAD_MLATT
360
FA5
  3
ACAD_XREC_ROUNDTRIP
360
FA4
  0
DICTIONARY
  5
FA6
330
257
100
AcDbDictionary
280
     1
281
     1
  3
ACAD_MLATT
360
FA8
  3
ACAD_XREC_ROUNDTRIP
360
FA7
  0
DICTIONARY
  5
FA9
330
258
100
AcDbDictionary
280
     1
281
     1
  3
ACAD_MLATT
360
FAB
  3
ACAD_XREC_ROUNDTRIP
360
FAA
  0
DICTIONARY
  5
1011
330
715
100
AcDbDictionary
280
     1
281
     1
  3
ACAD_MTEXT_2008_RT
360
1012
  0
DICTIONARY
  5
FAC
330
25B
100
AcDbDictionary
280
     1
281
     1
  3
ACAD_MLATT
360
FAE
  3
ACAD_XREC_ROUNDTRIP
360
FAD
  0
DICTIONARY
  5
FAF
330
25C
100
AcDbDictionary
280
     1
281
     1
  3
ACAD_MLATT
360
FB1
  3
ACAD_XREC_ROUNDTRIP
360
FB0
  0
DICTIONARY
  5
FB2
330
25D
100
AcDbDictionary
280
     1
281
     1
  3
ACAD_MLATT
360
FB4
  3
ACAD_XREC_ROUNDTRIP
360
FB3
  0
DICTIONARY
  5
FB5
330
25E
100
AcDbDictionary
280
     1
281
     1
  3
ACAD_MLATT
360
FB7
  3
ACAD_XREC_ROUNDTRIP
360
FB6
  0
DICTIONARY
  5
FB8
330
25F
100
AcDbDictionary
280
     1
281
     1
  3
ACAD_MLATT
360
FBA
  3
ACAD_XREC_ROUNDTRIP
360
FB9
  0
DICTIONARY
  5
FBB
330
260
100
AcDbDictionary
280
     1
281
     1
  3
ACAD_MLATT
360
FBD
  3
ACAD_XREC_ROUNDTRIP
360
FBC
  0
DICTIONARY
  5
FBE
330
261
100
AcDbDictionary
280
     1
281
     1
  3
ACAD_MLATT
360
FC0
  3
ACAD_XREC_ROUNDTRIP
360
FBF
  0
DICTIONARY
  5
FC1
330
262
100
AcDbDictionary
280
     1
281
     1
  3
ACAD_MLATT
360
FC3
  3
ACAD_XREC_ROUNDTRIP
360
FC2
  0
DICTIONARY
  5
FC4
330
263
100
AcDbDictionary
280
     1
281
     1
  3
ACAD_MLATT
360
FC6
  3
ACAD_XREC_ROUNDTRIP
360
FC5
  0
DICTIONARY
  5
FC7
330
264
100
AcDbDictionary
280
     1
281
     1
  3
ACAD_MLATT
360
FC9
  3
ACAD_XREC_ROUNDTRIP
360
FC8
  0
DICTIONARY
  5
FCA
330
265
100
AcDbDictionary
280
     1
281
     1
  3
ACAD_MLATT
360
FCC
  3
ACAD_XREC_ROUNDTRIP
360
FCB
  0
DICTIONARY
  5
FCD
330
266
100
AcDbDictionary
280
     1
281
     1
  3
ACAD_MLATT
360
FCF
  3
ACAD_XREC_ROUNDTRIP
360
FCE
  0
DICTIONARY
  5
FD0
330
267
100
AcDbDictionary
280
     1
281
     1
  3
ACAD_MLATT
360
FD2
  3
ACAD_XREC_ROUNDTRIP
360
FD1
  0
DICTIONARY
  5
FD3
330
268
100
AcDbDictionary
280
     1
281
     1
  3
ACAD_MLATT
360
FD5
  3
ACAD_XREC_ROUNDTRIP
360
FD4
  0
DICTIONARY
  5
FD6
330
269
100
AcDbDictionary
280
     1
281
     1
  3
ACAD_MLATT
360
FD8
  3
ACAD_XREC_ROUNDTRIP
360
FD7
  0
DICTIONARY
  5
FD9
330
26A
100
AcDbDictionary
280
     1
281
     1
  3
ACAD_MLATT
360
FDB
  3
ACAD_XREC_ROUNDTRIP
360
FDA
  0
DICTIONARY
  5
FDC
330
26B
100
AcDbDictionary
280
     1
281
     1
  3
ACAD_MLATT
360
FDE
  3
ACAD_XREC_ROUNDTRIP
360
FDD
  0
DICTIONARY
  5
FDF
330
26C
100
AcDbDictionary
280
     1
281
     1
  3
ACAD_MLATT
360
FE1
  3
ACAD_XREC_ROUNDTRIP
360
FE0
  0
DICTIONARY
  5
FE2
330
26D
100
AcDbDictionary
280
     1
281
     1
  3
ACAD_MLATT
360
FE4
  3
ACAD_XREC_ROUNDTRIP
360
FE3
  0
DICTIONARY
  5
6E
102
{ACAD_REACTORS
330
C
102
}
330
C
100
AcDbDictionary
281
     1
  0
DICTIONARY
  5
D
102
{ACAD_REACTORS
330
C
102
}
330
C
100
AcDbDictionary
281
     1
  0
DICTIONARY
  5
6D
102
{ACAD_REACTORS
330
C
102
}
330
C
100
AcDbDictionary
281
     1
  3
Layout1
350
76
  3
Layout2
350
7E
  3
Model
350
7A
  0
DICTIONARY
  5
10
102
{ACAD_REACTORS
330
C
102
}
330
C
100
AcDbDictionary
281
     1
  3
ByBlock
350
19
  3
ByLayer
350
11
  3
Global
350
21
  0
DICTIONARY
  5
71
102
{ACAD_REACTORS
330
C
102
}
330
C
100
AcDbDictionary
281
     1
  3
Standard
350
72
  0
DICTIONARY
  5
6A
102
{ACAD_REACTORS
330
C
102
}
330
C
100
AcDbDictionary
281
     1
  3
Standard
350
6B
  0
DICTIONARY
  5
6C
102
{ACAD_REACTORS
330
C
102
}
330
C
100
AcDbDictionary
281
     1
  0
ACDBDICTIONARYWDFLT
  5
E
102
{ACAD_REACTORS
330
C
102
}
330
C
100
AcDbDictionary
281
     1
  3
Normal
350
F
100
AcDbDictionaryWithDefault
340
F
  0
DICTIONARY
  5
3D
102
{ACAD_REACTORS
330
C
102
}
330
C
100
AcDbDictionary
281
     1
  3
A0
350
3E
  3
A1
350
3F
  3
A2
350
40
  3
A3
350
41
  3
A4
350
42
  3
A5
350
43
  3
A6
350
44
  3
A7
350
45
  3
A8
350
46
  3
A9
350
47
  3
B0
350
48
  3
B1
350
49
  3
B2
350
4A
  3
B3
350
4B
  3
B4
350
4C
  3
B5
350
4D
  3
B6
350
4E
  3
B7
350
4F
  3
B8
350
50
  3
B9
350
51
  3
C0
350
52
  3
C1
350
53
  3
C2
350
54
  3
C3
350
55
  3
C4
350
56
  3
C5
350
57
  3
C6
350
58
  3
C7
350
59
  3
C8
350
5A
  3
C9
350
5B
  3
D0
350
5C
  3
D1
350
5D
  3
D2
350
5E
  0
DICTIONARY
  5
6F
102
{ACAD_REACTORS
330
C
102
}
330
C
100
AcDbDictionary
281
     1
  3
Standard
350
70
  0
DICTIONARY
  5
29
102
{ACAD_REACTORS
330
C
102
}
330
C
100
AcDbDictionary
281
     1
  3
2dWireframe
350
2F
  3
3D Hidden
350
31
  3
3dWireframe
350
30
  3
Basic
350
2E
  3
Brighten
350
35
  3
ColorChange
350
39
  3
Conceptual
350
32
  3
Dim
350
34
  3
EdgeColorOff
350
3C
  3
Facepattern
350
38
  3
Flat
350
2A
  3
FlatWithEdges
350
2B
  3
Gouraud
350
2C
  3
GouraudWithEdges
350
2D
  3
JitterOff
350
3A
  3
Linepattern
350
37
  3
OverhangOff
350
3B
  3
Realistic
350
33
  3
Thicken
350
36
  0
XRECORD
  5
FE5
102
{ACAD_REACTORS
330
C
102
}
330
C
100
AcDbXrecord
280
     1
 90
        1
330
70
330
104
330
243
330
245
330
246
330
248
330
249
330
24B
330
24C
330
24D
330
24E
330
24F
330
250
330
251
330
252
330
253
330
254
330
255
330
256
330
257
330
258
330
25B
330
25C
330
25D
330
25E
330
25F
330
260
330
261
330
262
330
263
330
264
330
265
330
266
330
267
330
268
330
269
330
26A
330
26B
330
26C
330
26D
330
396
330
480
330
66E
330
C84
330
D6E
  0
DICTIONARY
  5
F64
102
{ACAD_REACTORS
330
C
102
}
330
C
100
AcDbDictionary
281
     1
  3
CANNOSCALE
350
F68
  3
CMLEADERSTYLE
350
F66
  3
CTABLESTYLE
350
F65
  3
LAYEREVAL
350
F6A
  3
LAYERNOTIFY
350
F6B
  3
LIGHTINGUNITS
350
F69
  3
MSLTSCALE
350
F67
  3
XCLIPFRAME
350
F6C
  0
XRECORD
  5
F71
102
{ACAD_REACTORS
330
F6F
102
}
330
F6F
100
AcDbXrecord
280
     1
 70
     4
 70
     0
 70
     0
 40
1.0
  2
<Enter_Prompt_for_Field>
  1
Embedded Object
 10
0.0
 20
0.0
 30
0.0
 40
2.5
 41
0.0
 46
0.0
 71
     5
 72
     5
  1
\W0.9000;
  7
Text Style49
 73
     1
 44
1.0
  0
XRECORD
  5
F70
102
{ACAD_REACTORS
330
F6F
102
}
330
F6F
100
AcDbXrecord
280
     1
102
ACAD_MATT_HEIGHT
140
2.5
  0
XRECORD
  5
F75
102
{ACAD_REACTORS
330
F73
102
}
330
F73
100
AcDbXrecord
280
     1
 70
     4
 70
     0
 70
     0
 40
1.0
  2
Title
  1
Embedded Object
 10
206.6
 20
126.0241925130958
 30
0.0
 40
5.0
 41
89.14362202638884
 46
0.0
 71
     4
 72
     5
  1
BS 303
  7
Text Style20
 73
     1
 44
1.0
  0
XRECORD
  5
F74
102
{ACAD_REACTORS
330
F73
102
}
330
F73
100
AcDbXrecord
280
     1
102
ACAD_MATT_HEIGHT
140
5.0
  0
XRECORD
  5
F78
102
{ACAD_REACTORS
330
F76
102
}
330
F76
100
AcDbXrecord
280
     1
 70
     4
 70
     0
 70
     0
 40
1.0
  2
Auxiliary_Remark1
  1
Embedded Object
 10
206.6000000000001
 20
119.5241925130958
 30
0.0
 40
3.499999940395355
 41
88.8588638187849
 46
0.0
 71
     4
 72
     5
  1
cleaner sink CNS
  7
Text Style9
 73
     1
 44
1.0
  0
XRECORD
  5
F77
102
{ACAD_REACTORS
330
F76
102
}
330
F76
100
AcDbXrecord
280
     1
102
ACAD_MATT_HEIGHT
140
3.499999940395355
  0
XRECORD
  5
F7B
102
{ACAD_REACTORS
330
F79
102
}
330
F79
100
AcDbXrecord
280
     1
 70
     4
 70
     0
 70
     0
 40
1.0
  2
Auxiliary_Remark2
  1
Embedded Object
 10
206.6
 20
113.0241925130958
 30
0.0
 40
3.499999940395355
 41
88.50560020660971
 46
0.0
 71
     4
 72
     5
  1

  7
Text Style9
 73
     1
 44
1.0
  0
XRECORD
  5
F7A
102
{ACAD_REACTORS
330
F79
102
}
330
F79
100
AcDbXrecord
280
     1
102
ACAD_MATT_HEIGHT
140
3.499999940395355
  0
XRECORD
  5
F7E
102
{ACAD_REACTORS
330
F7C
102
}
330
F7C
100
AcDbXrecord
280
     1
 70
     4
 70
     0
 70
     0
 40
1.0
  2
Part_number
  1
Embedded Object
 10
248.1
 20
141.0241925130958
 30
0.0
 40
2.5
 41
35.7212232739224
 46
0.0
 71
     4
 72
     5
  1
BS303
  7
Text Style38
 73
     1
 44
1.0
  0
XRECORD
  5
F7D
102
{ACAD_REACTORS
330
F7C
102
}
330
F7C
100
AcDbXrecord
280
     1
102
ACAD_MATT_HEIGHT
140
2.5
  0
XRECORD
  5
F81
102
{ACAD_REACTORS
330
F7F
102
}
330
F7F
100
AcDbXrecord
280
     1
 70
     4
 70
     0
 70
     0
 40
1.0
  2
Document_Number
  1
Embedded Object
 10
218.1
 20
104.2741925130957
 30
0.0
 40
5.0
 41
45.26060067066413
 46
0.0
 71
     4
 72
     5
  1
0093-129585
  7
Text Style20
 73
     1
 44
1.0
  0
XRECORD
  5
F80
102
{ACAD_REACTORS
330
F7F
102
}
330
F7F
100
AcDbXrecord
280
     1
102
ACAD_MATT_HEIGHT
140
5.0
  0
XRECORD
  5
F84
102
{ACAD_REACTORS
330
F82
102
}
330
F82
100
AcDbXrecord
280
     1
 70
     4
 70
     0
 70
     0
 40
1.0
  2
Revision_Memo_1
  1
Embedded Object
 10
155.6
 20
138.0241925130958
 30
0.0
 40
2.000000029802322
 41
46.75017271010267
 46
0.0
 71
     1
 72
     5
  1

  7
Text Style40
 73
     1
 44
1.0
  0
XRECORD
  5
F83
102
{ACAD_REACTORS
330
F82
102
}
330
F82
100
AcDbXrecord
280
     1
102
ACAD_MATT_HEIGHT
140
2.000000029802322
  0
XRECORD
  5
F87
102
{ACAD_REACTORS
330
F85
102
}
330
F85
100
AcDbXrecord
280
     1
 70
     4
 70
     0
 70
     0
 40
1.0
  2
Revision_Index_1
  1
Embedded Object
 10
264.6
 20
104.2741925130957
 30
0.0
 40
5.0
 41
11.14714749717635
 46
0.0
 71
     4
 72
     5
  1

  7
Text Style20
 73
     1
 44
1.0
  0
XRECORD
  5
F86
102
{ACAD_REACTORS
330
F85
102
}
330
F85
100
AcDbXrecord
280
     1
102
ACAD_MATT_HEIGHT
140
5.0
  0
XRECORD
  5
F8A
102
{ACAD_REACTORS
330
F88
102
}
330
F88
100
AcDbXrecord
280
     1
 70
     4
 70
     0
 70
     0
 40
1.0
  2
Sheet_Size
  1
Embedded Object
 10
205.6
 20
104.2741925130957
 30
0.0
 40
5.0
 41
44.17438307011515
 46
0.0
 71
     4
 72
     5
  1
A4
  7
Text Style20
 73
     1
 44
1.0
  0
XRECORD
  5
F89
102
{ACAD_REACTORS
330
F88
102
}
330
F88
100
AcDbXrecord
280
     1
102
ACAD_MATT_HEIGHT
140
5.0
  0
XRECORD
  5
F8D
102
{ACAD_REACTORS
330
F8B
102
}
330
F8B
100
AcDbXrecord
280
     1
 70
     4
 70
     0
 70
     0
 40
1.0
  2
Drawn_By
  1
Embedded Object
 10
90.6
 20
141.0241925130958
 30
0.0
 40
2.000000029802322
 41
14.31996733840145
 46
0.0
 71
     4
 72
     5
  1
SS136
  7
Text Style40
 73
     1
 44
1.0
  0
XRECORD
  5
F8C
102
{ACAD_REACTORS
330
F8B
102
}
330
F8B
100
AcDbXrecord
280
     1
102
ACAD_MATT_HEIGHT
140
2.000000029802322
  0
XRECORD
  5
F90
102
{ACAD_REACTORS
330
F8E
102
}
330
F8E
100
AcDbXrecord
280
     1
 70
     4
 70
     0
 70
     0
 40
1.0
  2
Modified_By
  1
Embedded Object
 10
90.6
 20
133.5241925130958
 30
0.0
 40
2.000000029802322
 41
13.91658797675633
 46
0.0
 71
     4
 72
     5
  1

  7
Text Style40
 73
     1
 44
1.0
  0
XRECORD
  5
F8F
102
{ACAD_REACTORS
330
F8E
102
}
330
F8E
100
AcDbXrecord
280
     1
102
ACAD_MATT_HEIGHT
140
2.000000029802322
  0
XRECORD
  5
F93
102
{ACAD_REACTORS
330
F91
102
}
330
F91
100
AcDbXrecord
280
     1
 70
     4
 70
     0
 70
     0
 40
1.0
  2
Drawn_Date
  1
Embedded Object
 10
135.6
 20
141.0241925130958
 30
0.0
 40
2.000000029802322
 41
20.97572680554579
 46
0.0
 71
     4
 72
     5
  1
13/10/2010
  7
Text Style40
 73
     1
 44
1.0
  0
XRECORD
  5
F92
102
{ACAD_REACTORS
330
F91
102
}
330
F91
100
AcDbXrecord
280
     1
102
ACAD_MATT_HEIGHT
140
2.000000029802322
  0
XRECORD
  5
F96
102
{ACAD_REACTORS
330
F94
102
}
330
F94
100
AcDbXrecord
280
     1
 70
     4
 70
     0
 70
     0
 40
1.0
  2
Modified_Date
  1
Embedded Object
 10
135.6
 20
133.5241925130958
 30
0.0
 40
2.000000029802322
 41
20.16896808225555
 46
0.0
 71
     4
 72
     5
  1
24/02/2010
  7
Text Style40
 73
     1
 44
1.0
  0
XRECORD
  5
F95
102
{ACAD_REACTORS
330
F94
102
}
330
F94
100
AcDbXrecord
280
     1
102
ACAD_MATT_HEIGHT
140
2.000000029802322
  0
XRECORD
  5
F99
102
{ACAD_REACTORS
330
F97
102
}
330
F97
100
AcDbXrecord
280
     1
 70
     4
 70
     0
 70
     0
 40
1.0
  2
Revision_Titel_1
  1
Embedded Object
 10
155.6
 20
141.0241925130958
 30
0.0
 40
2.000000029802322
 41
52.85729261131551
 46
0.0
 71
     4
 72
     5
  1

  7
Text Style40
 73
     1
 44
1.0
  0
XRECORD
  5
F98
102
{ACAD_REACTORS
330
F97
102
}
330
F97
100
AcDbXrecord
280
     1
102
ACAD_MATT_HEIGHT
140
2.000000029802322
  0
XRECORD
  5
F9C
102
{ACAD_REACTORS
330
F9A
102
}
330
F9A
100
AcDbXrecord
280
     1
 70
     4
 70
     0
 70
     0
 40
1.0
  2
Sheet_number
  1
Embedded Object
 10
278.35
 20
104.2741925130957
 30
0.0
 40
5.0
 41
0.0
 46
0.0
 71
     5
 72
     5
  1
\W0.9000;1 
  7
Text__5.0mm
 73
     1
 44
1.0
  0
XRECORD
  5
F9B
102
{ACAD_REACTORS
330
F9A
102
}
330
F9A
100
AcDbXrecord
280
     1
102
ACAD_MATT_HEIGHT
140
5.0
  0
XRECORD
  5
F9F
102
{ACAD_REACTORS
330
F9D
102
}
330
F9D
100
AcDbXrecord
280
     1
 70
     4
 70
     0
 70
     0
 40
1.0
  2
Number_of_sheets
  1
Embedded Object
 10
285.85
 20
104.2741925130957
 30
0.0
 40
5.0
 41
0.0
 46
0.0
 71
     5
 72
     5
  1
\W0.9000;4 
  7
Text__5.0mm
 73
     1
 44
1.0
  0
XRECORD
  5
F9E
102
{ACAD_REACTORS
330
F9D
102
}
330
F9D
100
AcDbXrecord
280
     1
102
ACAD_MATT_HEIGHT
140
5.0
  0
XRECORD
  5
FA2
102
{ACAD_REACTORS
330
FA0
102
}
330
FA0
100
AcDbXrecord
280
     1
 70
     4
 70
     0
 70
     0
 40
1.0
  2
FUN
  1
Embedded Object
 10
205.6
 20
133.5241925130958
 30
0.0
 40
2.5
 41
35.7212232739224
 46
0.0
 71
     4
 72
     5
  1

  7
Text Style38
 73
     1
 44
1.0
  0
XRECORD
  5
FA1
102
{ACAD_REACTORS
330
FA0
102
}
330
FA0
100
AcDbXrecord
280
     1
102
ACAD_MATT_HEIGHT
140
2.5
  0
XRECORD
  5
FA5
102
{ACAD_REACTORS
330
FA3
102
}
330
FA3
100
AcDbXrecord
280
     1
 70
     4
 70
     0
 70
     0
 40
1.0
  2
EAN
  1
Embedded Object
 10
248.1
 20
133.5241925130958
 30
0.0
 40
2.5
 41
35.7212232739224
 46
0.0
 71
     4
 72
     5
  1
7612979000351
  7
Text Style38
 73
     1
 44
1.0
  0
XRECORD
  5
FA4
102
{ACAD_REACTORS
330
FA3
102
}
330
FA3
100
AcDbXrecord
280
     1
102
ACAD_MATT_HEIGHT
140
2.5
  0
XRECORD
  5
FA8
102
{ACAD_REACTORS
330
FA6
102
}
330
FA6
100
AcDbXrecord
280
     1
 70
     4
 70
     0
 70
     0
 40
1.0
  2
Departement
  1
Embedded Object
 10
110.6
 20
133.5241925130958
 30
0.0
 40
2.000000029802322
 41
17.55611008168829
 46
0.0
 71
     4
 72
     5
  1
FSI-Marketing
  7
Text Style40
 73
     1
 44
1.0
  0
XRECORD
  5
FA7
102
{ACAD_REACTORS
330
FA6
102
}
330
FA6
100
AcDbXrecord
280
     1
102
ACAD_MATT_HEIGHT
140
2.000000029802322
  0
XRECORD
  5
FAB
102
{ACAD_REACTORS
330
FA9
102
}
330
FA9
100
AcDbXrecord
280
     1
 70
     4
 70
     0
 70
     0
 40
1.0
  2
Departement
  1
Embedded Object
 10
110.6
 20
141.0241925130958
 30
0.0
 40
2.000000029802322
 41
18.45803981954006
 46
0.0
 71
     4
 72
     5
  1
FSI-Marketing
  7
Text Style40
 73
     1
 44
1.0
  0
XRECORD
  5
FAA
102
{ACAD_REACTORS
330
FA9
102
}
330
FA9
100
AcDbXrecord
280
     1
102
ACAD_MATT_HEIGHT
140
2.000000029802322
  0
XRECORD
  5
1012
102
{ACAD_REACTORS
330
1011
102
}
330
1011
100
AcDbXrecord
280
     1
 40
5061.0
  1
\A1;\U+220560
  0
XRECORD
  5
FAE
102
{ACAD_REACTORS
330
FAC
102
}
330
FAC
100
AcDbXrecord
280
     1
 70
     2
 70
     0
 70
     0
 40
1.0
  2
Title
  1
Embedded Object
 10
976.0
 20
246.0000000000005
 30
0.0
 40
40.0
 41
713.1489762111107
 46
0.0
 71
     4
 72
     5
  1
BS 303
  7
Text Style20
 73
     1
 44
1.0
  0
XRECORD
  5
FAD
102
{ACAD_REACTORS
330
FAC
102
}
330
FAC
100
AcDbXrecord
280
     1
102
ACAD_MATT_HEIGHT
140
40.0
  0
XRECORD
  5
FB1
102
{ACAD_REACTORS
330
FAF
102
}
330
FAF
100
AcDbXrecord
280
     1
 70
     2
 70
     0
 70
     0
 40
1.0
  2
Auxiliary_Remark1
  1
Embedded Object
 10
976.0000000000005
 20
194.0000000000005
 30
0.0
 40
27.99999952316284
 41
710.8709105502791
 46
0.0
 71
     4
 72
     5
  1
cleaner sink CNS
  7
Text Style9
 73
     1
 44
1.0
  0
XRECORD
  5
FB0
102
{ACAD_REACTORS
330
FAF
102
}
330
FAF
100
AcDbXrecord
280
     1
102
ACAD_MATT_HEIGHT
140
27.99999952316284
  0
XRECORD
  5
FB4
102
{ACAD_REACTORS
330
FB2
102
}
330
FB2
100
AcDbXrecord
280
     1
 70
     2
 70
     0
 70
     0
 40
1.0
  2
Auxiliary_Remark2
  1
Embedded Object
 10
976.0
 20
142.0000000000006
 30
0.0
 40
27.99999952316284
 41
708.0448016528777
 46
0.0
 71
     4
 72
     5
  1

  7
Text Style9
 73
     1
 44
1.0
  0
XRECORD
  5
FB3
102
{ACAD_REACTORS
330
FB2
102
}
330
FB2
100
AcDbXrecord
280
     1
102
ACAD_MATT_HEIGHT
140
27.99999952316284
  0
XRECORD
  5
FB7
102
{ACAD_REACTORS
330
FB5
102
}
330
FB5
100
AcDbXrecord
280
     1
 70
     2
 70
     0
 70
     0
 40
1.0
  2
Part_number
  1
Embedded Object
 10
1308.0
 20
366.0000000000005
 30
0.0
 40
20.0
 41
285.7697861913792
 46
0.0
 71
     4
 72
     5
  1
BS303
  7
Text Style38
 73
     1
 44
1.0
  0
XRECORD
  5
FB6
102
{ACAD_REACTORS
330
FB5
102
}
330
FB5
100
AcDbXrecord
280
     1
102
ACAD_MATT_HEIGHT
140
20.0
  0
XRECORD
  5
FBA
102
{ACAD_REACTORS
330
FB8
102
}
330
FB8
100
AcDbXrecord
280
     1
 70
     2
 70
     0
 70
     0
 40
1.0
  2
Document_Number
  1
Embedded Object
 10
1068.0
 20
72.00000000000002
 30
0.0
 40
40.0
 41
362.0848053653131
 46
0.0
 71
     4
 72
     5
  1
0093-129585
  7
Text Style20
 73
     1
 44
1.0
  0
XRECORD
  5
FB9
102
{ACAD_REACTORS
330
FB8
102
}
330
FB8
100
AcDbXrecord
280
     1
102
ACAD_MATT_HEIGHT
140
40.0
  0
XRECORD
  5
FBD
102
{ACAD_REACTORS
330
FBB
102
}
330
FBB
100
AcDbXrecord
280
     1
 70
     2
 70
     0
 70
     0
 40
1.0
  2
Revision_Memo_1
  1
Embedded Object
 10
568.0
 20
342.0000000000003
 30
0.0
 40
16.00000023841858
 41
374.0013816808214
 46
0.0
 71
     1
 72
     5
  1

  7
Text Style40
 73
     1
 44
1.0
  0
XRECORD
  5
FBC
102
{ACAD_REACTORS
330
FBB
102
}
330
FBB
100
AcDbXrecord
280
     1
102
ACAD_MATT_HEIGHT
140
16.00000023841858
  0
XRECORD
  5
FC0
102
{ACAD_REACTORS
330
FBE
102
}
330
FBE
100
AcDbXrecord
280
     1
 70
     2
 70
     0
 70
     0
 40
1.0
  2
Revision_Index_1
  1
Embedded Object
 10
1440.0
 20
71.9999999999996
 30
0.0
 40
40.0
 41
89.17717997741078
 46
0.0
 71
     4
 72
     5
  1

  7
Text Style20
 73
     1
 44
1.0
  0
XRECORD
  5
FBF
102
{ACAD_REACTORS
330
FBE
102
}
330
FBE
100
AcDbXrecord
280
     1
102
ACAD_MATT_HEIGHT
140
40.0
  0
XRECORD
  5
FC3
102
{ACAD_REACTORS
330
FC1
102
}
330
FC1
100
AcDbXrecord
280
     1
 70
     2
 70
     0
 70
     0
 40
1.0
  2
Sheet_Size
  1
Embedded Object
 10
968.0000000000001
 20
72.00000000000002
 30
0.0
 40
40.0
 41
353.3950645609213
 46
0.0
 71
     4
 72
     5
  1
A4
  7
Text Style20
 73
     1
 44
1.0
  0
XRECORD
  5
FC2
102
{ACAD_REACTORS
330
FC1
102
}
330
FC1
100
AcDbXrecord
280
     1
102
ACAD_MATT_HEIGHT
140
40.0
  0
XRECORD
  5
FC6
102
{ACAD_REACTORS
330
FC4
102
}
330
FC4
100
AcDbXrecord
280
     1
 70
     2
 70
     0
 70
     0
 40
1.0
  2
Drawn_By
  1
Embedded Object
 10
47.99999999999982
 20
366.0000000000005
 30
0.0
 40
16.00000023841858
 41
114.5597387072117
 46
0.0
 71
     4
 72
     5
  1
SS136
  7
Text Style40
 73
     1
 44
1.0
  0
XRECORD
  5
FC5
102
{ACAD_REACTORS
330
FC4
102
}
330
FC4
100
AcDbXrecord
280
     1
102
ACAD_MATT_HEIGHT
140
16.00000023841858
  0
XRECORD
  5
FC9
102
{ACAD_REACTORS
330
FC7
102
}
330
FC7
100
AcDbXrecord
280
     1
 70
     2
 70
     0
 70
     0
 40
1.0
  2
Modified_By
  1
Embedded Object
 10
47.99999999999982
 20
306.0000000000007
 30
0.0
 40
16.00000023841858
 41
111.3327038140507
 46
0.0
 71
     4
 72
     5
  1

  7
Text Style40
 73
     1
 44
1.0
  0
XRECORD
  5
FC8
102
{ACAD_REACTORS
330
FC7
102
}
330
FC7
100
AcDbXrecord
280
     1
102
ACAD_MATT_HEIGHT
140
16.00000023841858
  0
XRECORD
  5
FCC
102
{ACAD_REACTORS
330
FCA
102
}
330
FCA
100
AcDbXrecord
280
     1
 70
     2
 70
     0
 70
     0
 40
1.0
  2
Drawn_Date
  1
Embedded Object
 10
408.0
 20
366.0000000000005
 30
0.0
 40
16.00000023841858
 41
167.8058144443663
 46
0.0
 71
     4
 72
     5
  1
13/10/2010
  7
Text Style40
 73
     1
 44
1.0
  0
XRECORD
  5
FCB
102
{ACAD_REACTORS
330
FCA
102
}
330
FCA
100
AcDbXrecord
280
     1
102
ACAD_MATT_HEIGHT
140
16.00000023841858
  0
XRECORD
  5
FCF
102
{ACAD_REACTORS
330
FCD
102
}
330
FCD
100
AcDbXrecord
280
     1
 70
     2
 70
     0
 70
     0
 40
1.0
  2
Modified_Date
  1
Embedded Object
 10
408.0
 20
306.0000000000007
 30
0.0
 40
16.00000023841858
 41
161.3517446580444
 46
0.0
 71
     4
 72
     5
  1
24/02/2010
  7
Text Style40
 73
     1
 44
1.0
  0
XRECORD
  5
FCE
102
{ACAD_REACTORS
330
FCD
102
}
330
FCD
100
AcDbXrecord
280
     1
102
ACAD_MATT_HEIGHT
140
16.00000023841858
  0
XRECORD
  5
FD2
102
{ACAD_REACTORS
330
FD0
102
}
330
FD0
100
AcDbXrecord
280
     1
 70
     2
 70
     0
 70
     0
 40
1.0
  2
Revision_Titel_1
  1
Embedded Object
 10
568.0
 20
366.0000000000002
 30
0.0
 40
16.00000023841858
 41
422.8583408905241
 46
0.0
 71
     4
 72
     5
  1

  7
Text Style40
 73
     1
 44
1.0
  0
XRECORD
  5
FD1
102
{ACAD_REACTORS
330
FD0
102
}
330
FD0
100
AcDbXrecord
280
     1
102
ACAD_MATT_HEIGHT
140
16.00000023841858
  0
XRECORD
  5
FD5
102
{ACAD_REACTORS
330
FD3
102
}
330
FD3
100
AcDbXrecord
280
     1
 70
     2
 70
     0
 70
     0
 40
1.0
  2
Sheet_number
  1
Embedded Object
 10
1550.0
 20
71.9999999999996
 30
0.0
 40
40.0
 41
0.0
 46
0.0
 71
     5
 72
     5
  1
\W0.9000;1 
  7
Text__5.0mm
 73
     1
 44
1.0
  0
XRECORD
  5
FD4
102
{ACAD_REACTORS
330
FD3
102
}
330
FD3
100
AcDbXrecord
280
     1
102
ACAD_MATT_HEIGHT
140
40.0
  0
XRECORD
  5
FD8
102
{ACAD_REACTORS
330
FD6
102
}
330
FD6
100
AcDbXrecord
280
     1
 70
     2
 70
     0
 70
     0
 40
1.0
  2
Number_of_sheets
  1
Embedded Object
 10
1610.0
 20
71.9999999999996
 30
0.0
 40
40.0
 41
0.0
 46
0.0
 71
     5
 72
     5
  1
\W0.9000;4 
  7
Text__5.0mm
 73
     1
 44
1.0
  0
XRECORD
  5
FD7
102
{ACAD_REACTORS
330
FD6
102
}
330
FD6
100
AcDbXrecord
280
     1
102
ACAD_MATT_HEIGHT
140
40.0
  0
XRECORD
  5
FDB
102
{ACAD_REACTORS
330
FD9
102
}
330
FD9
100
AcDbXrecord
280
     1
 70
     2
 70
     0
 70
     0
 40
1.0
  2
FUN
  1
Embedded Object
 10
968.0000000000001
 20
306.0000000000005
 30
0.0
 40
20.0
 41
285.7697861913792
 46
0.0
 71
     4
 72
     5
  1

  7
Text Style38
 73
     1
 44
1.0
  0
XRECORD
  5
FDA
102
{ACAD_REACTORS
330
FD9
102
}
330
FD9
100
AcDbXrecord
280
     1
102
ACAD_MATT_HEIGHT
140
20.0
  0
XRECORD
  5
FDE
102
{ACAD_REACTORS
330
FDC
102
}
330
FDC
100
AcDbXrecord
280
     1
 70
     2
 70
     0
 70
     0
 40
1.0
  2
EAN
  1
Embedded Object
 10
1308.0
 20
306.0000000000005
 30
0.0
 40
20.0
 41
285.7697861913792
 46
0.0
 71
     4
 72
     5
  1
7612979000351
  7
Text Style38
 73
     1
 44
1.0
  0
XRECORD
  5
FDD
102
{ACAD_REACTORS
330
FDC
102
}
330
FDC
100
AcDbXrecord
280
     1
102
ACAD_MATT_HEIGHT
140
20.0
  0
XRECORD
  5
FE1
102
{ACAD_REACTORS
330
FDF
102
}
330
FDF
100
AcDbXrecord
280
     1
 70
     2
 70
     0
 70
     0
 40
1.0
  2
Departement
  1
Embedded Object
 10
207.9999999999998
 20
306.0000000000007
 30
0.0
 40
16.00000023841858
 41
140.4488806535063
 46
0.0
 71
     4
 72
     5
  1
FSI-Marketing
  7
Text Style40
 73
     1
 44
1.0
  0
XRECORD
  5
FE0
102
{ACAD_REACTORS
330
FDF
102
}
330
FDF
100
AcDbXrecord
280
     1
102
ACAD_MATT_HEIGHT
140
16.00000023841858
  0
XRECORD
  5
FE4
102
{ACAD_REACTORS
330
FE2
102
}
330
FE2
100
AcDbXrecord
280
     1
 70
     2
 70
     0
 70
     0
 40
1.0
  2
Departement
  1
Embedded Object
 10
207.9999999999998
 20
366.0000000000005
 30
0.0
 40
16.00000023841858
 41
147.6643185563205
 46
0.0
 71
     4
 72
     5
  1
FSI-Marketing
  7
Text Style40
 73
     1
 44
1.0
  0
XRECORD
  5
FE3
102
{ACAD_REACTORS
330
FE2
102
}
330
FE2
100
AcDbXrecord
280
     1
102
ACAD_MATT_HEIGHT
140
16.00000023841858
  0
LAYOUT
  5
76
102
{ACAD_REACTORS
330
6D
102
}
330
6D
100
AcDbPlotSettings
  1

  2

  4

  6

 40
0.0
 41
0.0
 42
0.0
 43
0.0
 44
0.0
 45
0.0
 46
0.0
 47
0.0
 48
0.0
 49
0.0
140
0.0
141
0.0
142
1.0
143
1.0
 70
   688
 72
     0
 73
     0
 74
     5
  7

 75
    16
147
1.0
 76
     0
 77
     2
 78
   300
148
0.0
149
0.0
100
AcDbLayout
  1
Layout1
 70
     1
 71
     1
 10
0.0
 20
0.0
 11
12.0
 21
9.0
 12
0.0
 22
0.0
 32
0.0
 14
0.0
 24
0.0
 34
0.0
 15
0.0
 25
0.0
 35
0.0
146
0.0
 13
0.0
 23
0.0
 33
0.0
 16
1.0
 26
0.0
 36
0.0
 17
0.0
 27
1.0
 37
0.0
 76
     0
330
73
  0
LAYOUT
  5
7E
102
{ACAD_REACTORS
330
6D
102
}
330
6D
100
AcDbPlotSettings
  1

  2

  4

  6

 40
0.0
 41
0.0
 42
0.0
 43
0.0
 44
0.0
 45
0.0
 46
0.0
 47
0.0
 48
0.0
 49
0.0
140
0.0
141
0.0
142
1.0
143
1.0
 70
   688
 72
     0
 73
     0
 74
     5
  7

 75
    16
147
1.0
 76
     0
 77
     2
 78
   300
148
0.0
149
0.0
100
AcDbLayout
  1
Layout2
 70
     1
 71
     2
 10
0.0
 20
0.0
 11
12.0
 21
9.0
 12
0.0
 22
0.0
 32
0.0
 14
0.0
 24
0.0
 34
0.0
 15
0.0
 25
0.0
 35
0.0
146
0.0
 13
0.0
 23
0.0
 33
0.0
 16
1.0
 26
0.0
 36
0.0
 17
0.0
 27
1.0
 37
0.0
 76
     0
330
7B
  0
LAYOUT
  5
7A
102
{ACAD_REACTORS
330
6D
102
}
330
6D
100
AcDbPlotSettings
  1

  2

  4

  6

 40
0.0
 41
0.0
 42
0.0
 43
0.0
 44
0.0
 45
0.0
 46
0.0
 47
0.0
 48
0.0
 49
0.0
140
0.0
141
0.0
142
1.0
143
1.0
 70
  1712
 72
     0
 73
     0
 74
     0
  7

 75
     0
147
1.0
 76
     0
 77
     2
 78
   300
148
0.0
149
0.0
100
AcDbLayout
  1
Model
 70
     1
 71
     0
 10
0.0
 20
0.0
 11
12.0
 21
9.0
 12
0.0
 22
0.0
 32
0.0
 14
0.0
 24
0.0
 34
0.0
 15
0.0
 25
0.0
 35
0.0
146
0.0
 13
0.0
 23
0.0
 33
0.0
 16
1.0
 26
0.0
 36
0.0
 17
0.0
 27
1.0
 37
0.0
 76
     0
330
77
  0
MATERIAL
  5
19
102
{ACAD_XDICTIONARY
360
1A
102
}
102
{ACAD_REACTORS
330
10
102
}
330
10
100
AcDbMaterial
  1
ByBlock
 72
     0
 43
0.0208333333333333
 43
0.0
 43
0.0
 43
0.0
 43
0.0
 43
0.0208333333333333
 43
0.0
 43
0.0
 43
0.0
 43
0.0
 43
1.0
 43
0.0
 43
0.0
 43
0.0
 43
0.0
 43
1.0
 77
     0
 47
0.0208333333333333
 47
0.0
 47
0.0
 47
0.0
 47
0.0
 47
0.0208333333333333
 47
0.0
 47
0.0
 47
0.0
 47
0.0
 47
1.0
 47
0.0
 47
0.0
 47
0.0
 47
0.0
 47
1.0
171
     0
 49
0.0208333333333333
 49
0.0
 49
0.0
 49
0.0
 49
0.0
 49
0.0208333333333333
 49
0.0
 49
0.0
 49
0.0
 49
0.0
 49
1.0
 49
0.0
 49
0.0
 49
0.0
 49
0.0
 49
1.0
175
     0
142
0.0208333333333333
142
0.0
142
0.0
142
0.0
142
0.0
142
0.0208333333333333
142
0.0
142
0.0
142
0.0
142
0.0
142
1.0
142
0.0
142
0.0
142
0.0
142
0.0
142
1.0
179
     0
144
0.0208333333333333
144
0.0
144
0.0
144
0.0
144
0.0
144
0.0208333333333333
144
0.0
144
0.0
144
0.0
144
0.0
144
1.0
144
0.0
144
0.0
144
0.0
144
0.0
144
1.0
147
0.0208333333333333
147
0.0
147
0.0
147
0.0
147
0.0
147
0.0208333333333333
147
0.0
147
0.0
147
0.0
147
0.0
147
1.0
147
0.0
147
0.0
147
0.0
147
0.0
147
1.0
  0
MATERIAL
  5
11
102
{ACAD_XDICTIONARY
360
12
102
}
102
{ACAD_REACTORS
330
10
102
}
330
10
100
AcDbMaterial
  1
ByLayer
 72
     0
 43
0.0208333333333333
 43
0.0
 43
0.0
 43
0.0
 43
0.0
 43
0.0208333333333333
 43
0.0
 43
0.0
 43
0.0
 43
0.0
 43
1.0
 43
0.0
 43
0.0
 43
0.0
 43
0.0
 43
1.0
 77
     0
 47
0.0208333333333333
 47
0.0
 47
0.0
 47
0.0
 47
0.0
 47
0.0208333333333333
 47
0.0
 47
0.0
 47
0.0
 47
0.0
 47
1.0
 47
0.0
 47
0.0
 47
0.0
 47
0.0
 47
1.0
171
     0
 49
0.0208333333333333
 49
0.0
 49
0.0
 49
0.0
 49
0.0
 49
0.0208333333333333
 49
0.0
 49
0.0
 49
0.0
 49
0.0
 49
1.0
 49
0.0
 49
0.0
 49
0.0
 49
0.0
 49
1.0
175
     0
142
0.0208333333333333
142
0.0
142
0.0
142
0.0
142
0.0
142
0.0208333333333333
142
0.0
142
0.0
142
0.0
142
0.0
142
1.0
142
0.0
142
0.0
142
0.0
142
0.0
142
1.0
179
     0
144
0.0208333333333333
144
0.0
144
0.0
144
0.0
144
0.0
144
0.0208333333333333
144
0.0
144
0.0
144
0.0
144
0.0
144
1.0
144
0.0
144
0.0
144
0.0
144
0.0
144
1.0
147
0.0208333333333333
147
0.0
147
0.0
147
0.0
147
0.0
147
0.0208333333333333
147
0.0
147
0.0
147
0.0
147
0.0
147
1.0
147
0.0
147
0.0
147
0.0
147
0.0
147
1.0
  0
MATERIAL
  5
21
102
{ACAD_XDICTIONARY
360
22
102
}
102
{ACAD_REACTORS
330
10
102
}
330
10
100
AcDbMaterial
  1
Global
 72
     0
 43
0.0208333333333333
 43
0.0
 43
0.0
 43
0.0
 43
0.0
 43
0.0208333333333333
 43
0.0
 43
0.0
 43
0.0
 43
0.0
 43
1.0
 43
0.0
 43
0.0
 43
0.0
 43
0.0
 43
1.0
 77
     0
 47
0.0208333333333333
 47
0.0
 47
0.0
 47
0.0
 47
0.0
 47
0.0208333333333333
 47
0.0
 47
0.0
 47
0.0
 47
0.0
 47
1.0
 47
0.0
 47
0.0
 47
0.0
 47
0.0
 47
1.0
171
     0
 49
0.0208333333333333
 49
0.0
 49
0.0
 49
0.0
 49
0.0
 49
0.0208333333333333
 49
0.0
 49
0.0
 49
0.0
 49
0.0
 49
1.0
 49
0.0
 49
0.0
 49
0.0
 49
0.0
 49
1.0
175
     0
142
0.0208333333333333
142
0.0
142
0.0
142
0.0
142
0.0
142
0.0208333333333333
142
0.0
142
0.0
142
0.0
142
0.0
142
1.0
142
0.0
142
0.0
142
0.0
142
0.0
142
1.0
179
     0
144
0.0208333333333333
144
0.0
144
0.0
144
0.0
144
0.0
144
0.0208333333333333
144
0.0
144
0.0
144
0.0
144
0.0
144
1.0
144
0.0
144
0.0
144
0.0
144
0.0
144
1.0
147
0.0208333333333333
147
0.0
147
0.0
147
0.0
147
0.0
147
0.0208333333333333
147
0.0
147
0.0
147
0.0
147
0.0
147
1.0
147
0.0
147
0.0
147
0.0
147
0.0
147
1.0
  0
MLEADERSTYLE
  5
72
102
{ACAD_REACTORS
330
71
102
}
330
71
100
AcDbMLeaderStyle
170
     2
171
     1
172
     0
 90
        2
 40
0.0
 41
0.0
173
     1
 91
-1056964608
340
66
 92
       -2
290
     1
 42
0.09
291
     1
 43
0.36
  3
Standard
 44
0.18
300

342
60
174
     1
178
     6
175
     1
176
     0
 93
-1056964608
 45
0.18
292
     0
297
     0
 46
0.18
 94
-1056964608
 47
1.0
 49
1.0
140
1.0
293
     1
141
0.0
294
     1
177
     0
142
1.0
295
     0
296
     0
143
0.125
1001
ACAD_MLEADERVER
1070
     2
  0
MLINESTYLE
  5
6B
102
{ACAD_REACTORS
330
6A
102
}
330
6A
100
AcDbMlineStyle
  2
STANDARD
 70
     0
  3

 62
   256
 51
90.0
 52
90.0
 71
     2
 49
0.5
 62
   256
  6
BYLAYER
 49
-0.5
 62
   256
  6
BYLAYER
  0
ACDBPLACEHOLDER
  5
F
102
{ACAD_REACTORS
330
E
102
}
330
E
  0
SCALE
  5
3E
102
{ACAD_REACTORS
330
3D
102
}
330
3D
100
AcDbScale
 70
     0
300
1:1
140
1.0
141
1.0
290
     1
  0
SCALE
  5
3F
102
{ACAD_REACTORS
330
3D
102
}
330
3D
100
AcDbScale
 70
     0
300
1:2
140
1.0
141
2.0
290
     0
  0
SCALE
  5
40
102
{ACAD_REACTORS
330
3D
102
}
330
3D
100
AcDbScale
 70
     0
300
1:4
140
1.0
141
4.0
290
     0
  0
SCALE
  5
41
102
{ACAD_REACTORS
330
3D
102
}
330
3D
100
AcDbScale
 70
     0
300
1:5
140
1.0
141
5.0
290
     0
  0
SCALE
  5
42
102
{ACAD_REACTORS
330
3D
102
}
330
3D
100
AcDbScale
 70
     0
300
1:8
140
1.0
141
8.0
290
     0
  0
SCALE
  5
43
102
{ACAD_REACTORS
330
3D
102
}
330
3D
100
AcDbScale
 70
     0
300
1:10
140
1.0
141
10.0
290
     0
  0
SCALE
  5
44
102
{ACAD_REACTORS
330
3D
102
}
330
3D
100
AcDbScale
 70
     0
300
1:16
140
1.0
141
16.0
290
     0
  0
SCALE
  5
45
102
{ACAD_REACTORS
330
3D
102
}
330
3D
100
AcDbScale
 70
     0
300
1:20
140
1.0
141
20.0
290
     0
  0
SCALE
  5
46
102
{ACAD_REACTORS
330
3D
102
}
330
3D
100
AcDbScale
 70
     0
300
1:30
140
1.0
141
30.0
290
     0
  0
SCALE
  5
47
102
{ACAD_REACTORS
330
3D
102
}
330
3D
100
AcDbScale
 70
     0
300
1:40
140
1.0
141
40.0
290
     0
  0
SCALE
  5
48
102
{ACAD_REACTORS
330
3D
102
}
330
3D
100
AcDbScale
 70
     0
300
1:50
140
1.0
141
50.0
290
     0
  0
SCALE
  5
49
102
{ACAD_REACTORS
330
3D
102
}
330
3D
100
AcDbScale
 70
     0
300
1:100
140
1.0
141
100.0
290
     0
  0
SCALE
  5
4A
102
{ACAD_REACTORS
330
3D
102
}
330
3D
100
AcDbScale
 70
     0
300
2:1
140
2.0
141
1.0
290
     0
  0
SCALE
  5
4B
102
{ACAD_REACTORS
330
3D
102
}
330
3D
100
AcDbScale
 70
     0
300
4:1
140
4.0
141
1.0
290
     0
  0
SCALE
  5
4C
102
{ACAD_REACTORS
330
3D
102
}
330
3D
100
AcDbScale
 70
     0
300
8:1
140
8.0
141
1.0
290
     0
  0
SCALE
  5
4D
102
{ACAD_REACTORS
330
3D
102
}
330
3D
100
AcDbScale
 70
     0
300
10:1
140
10.0
141
1.0
290
     0
  0
SCALE
  5
4E
102
{ACAD_REACTORS
330
3D
102
}
330
3D
100
AcDbScale
 70
     0
300
100:1
140
100.0
141
1.0
290
     0
  0
SCALE
  5
4F
102
{ACAD_REACTORS
330
3D
102
}
330
3D
100
AcDbScale
 70
     0
300
1/128" = 1'-0"
140
0.0078125
141
12.0
290
     0
  0
SCALE
  5
50
102
{ACAD_REACTORS
330
3D
102
}
330
3D
100
AcDbScale
 70
     0
300
1/64" = 1'-0"
140
0.015625
141
12.0
290
     0
  0
SCALE
  5
51
102
{ACAD_REACTORS
330
3D
102
}
330
3D
100
AcDbScale
 70
     0
300
1/32" = 1'-0"
140
0.03125
141
12.0
290
     0
  0
SCALE
  5
52
102
{ACAD_REACTORS
330
3D
102
}
330
3D
100
AcDbScale
 70
     0
300
1/16" = 1'-0"
140
0.0625
141
12.0
290
     0
  0
SCALE
  5
53
102
{ACAD_REACTORS
330
3D
102
}
330
3D
100
AcDbScale
 70
     0
300
3/32" = 1'-0"
140
0.09375
141
12.0
290
     0
  0
SCALE
  5
54
102
{ACAD_REACTORS
330
3D
102
}
330
3D
100
AcDbScale
 70
     0
300
1/8" = 1'-0"
140
0.125
141
12.0
290
     0
  0
SCALE
  5
55
102
{ACAD_REACTORS
330
3D
102
}
330
3D
100
AcDbScale
 70
     0
300
3/16" = 1'-0"
140
0.1875
141
12.0
290
     0
  0
SCALE
  5
56
102
{ACAD_REACTORS
330
3D
102
}
330
3D
100
AcDbScale
 70
     0
300
1/4" = 1'-0"
140
0.25
141
12.0
290
     0
  0
SCALE
  5
57
102
{ACAD_REACTORS
330
3D
102
}
330
3D
100
AcDbScale
 70
     0
300
3/8" = 1'-0"
140
0.375
141
12.0
290
     0
  0
SCALE
  5
58
102
{ACAD_REACTORS
330
3D
102
}
330
3D
100
AcDbScale
 70
     0
300
1/2" = 1'-0"
140
0.5
141
12.0
290
     0
  0
SCALE
  5
59
102
{ACAD_REACTORS
330
3D
102
}
330
3D
100
AcDbScale
 70
     0
300
3/4" = 1'-0"
140
0.75
141
12.0
290
     0
  0
SCALE
  5
5A
102
{ACAD_REACTORS
330
3D
102
}
330
3D
100
AcDbScale
 70
     0
300
1" = 1'-0"
140
1.0
141
12.0
290
     0
  0
SCALE
  5
5B
102
{ACAD_REACTORS
330
3D
102
}
330
3D
100
AcDbScale
 70
     0
300
1-1/2" = 1'-0"
140
1.5
141
12.0
290
     0
  0
SCALE
  5
5C
102
{ACAD_REACTORS
330
3D
102
}
330
3D
100
AcDbScale
 70
     0
300
3" = 1'-0"
140
3.0
141
12.0
290
     0
  0
SCALE
  5
5D
102
{ACAD_REACTORS
330
3D
102
}
330
3D
100
AcDbScale
 70
     0
300
6" = 1'-0"
140
6.0
141
12.0
290
     0
  0
SCALE
  5
5E
102
{ACAD_REACTORS
330
3D
102
}
330
3D
100
AcDbScale
 70
     0
300
1'-0" = 1'-0"
140
12.0
141
12.0
290
     0
  0
TABLESTYLE
  5
70
102
{ACAD_XDICTIONARY
360
F6D
102
}
102
{ACAD_REACTORS
330
6F
102
}
330
6F
100
AcDbTableStyle
  3
Standard
 70
     0
 71
     0
 40
0.06
 41
0.06
280
     0
281
     0
  7
Standard
140
0.18
170
     2
 62
     0
 63
     7
283
     0
274
    -2
284
     1
 64
     0
275
    -2
285
     1
 65
     0
276
    -2
286
     1
 66
     0
277
    -2
287
     1
 67
     0
278
    -2
288
     1
 68
     0
279
    -2
289
     1
 69
     0
  7
Standard
140
0.25
170
     5
 62
     0
 63
     7
283
     0
274
    -2
284
     1
 64
     0
275
    -2
285
     1
 65
     0
276
    -2
286
     1
 66
     0
277
    -2
287
     1
 67
     0
278
    -2
288
     1
 68
     0
279
    -2
289
     1
 69
     0
  7
Standard
140
0.18
170
     5
 62
     0
 63
     7
283
     0
274
    -2
284
     1
 64
     0
275
    -2
285
     1
 65
     0
276
    -2
286
     1
 66
     0
277
    -2
287
     1
 67
     0
278
    -2
288
     1
 68
     0
279
    -2
289
     1
 69
     0
  0
VISUALSTYLE
  5
2F
102
{ACAD_XDICTIONARY
360
FF3
102
}
102
{ACAD_REACTORS
330
29
102
}
330
29
100
AcDbVisualStyle
  2
2dWireframe
 70
     4
 71
     0
 72
     2
 73
     0
 90
        0
 40
-0.6
 41
-30.0
 62
     5
 63
     7
421
 16777215
 74
     1
 91
        4
 64
     7
 65
   257
 75
     1
175
     1
 42
1.0
 92
        0
 66
   257
 43
1.0
 76
     1
 77
     6
 78
     2
 67
     7
 79
     5
170
     0
171
     0
290
     0
174
     0
 93
        1
 44
0.0
173
     0
291
     0
 45
0.0
1001
ACAD
1000
AcDbSavedByObjectVersion
1070
     0
  0
VISUALSTYLE
  5
31
102
{ACAD_XDICTIONARY
360
FF7
102
}
102
{ACAD_REACTORS
330
29
102
}
330
29
100
AcDbVisualStyle
  2
3D Hidden
 70
     6
 71
     1
 72
     2
 73
     2
 90
        0
 40
-0.6
 41
-30.0
 62
     5
 63
     7
421
 16777215
 74
     2
 91
        2
 64
     7
 65
   257
 75
     2
175
     1
 42
179.0
 92
        0
 66
   257
 43
1.0
 76
     1
 77
     6
 78
     2
 67
     7
 79
     3
170
     0
171
     0
290
     0
174
     0
 93
        1
 44
0.0
173
     0
291
     0
 45
0.0
1001
ACAD
1000
AcDbSavedByObjectVersion
1070
     0
  0
VISUALSTYLE
  5
30
102
{ACAD_XDICTIONARY
360
FF5
102
}
102
{ACAD_REACTORS
330
29
102
}
330
29
100
AcDbVisualStyle
  2
3dWireframe
 70
     5
 71
     0
 72
     2
 73
     0
 90
        0
 40
-0.6
 41
-30.0
 62
     5
 63
     7
421
 16777215
 74
     1
 91
        4
 64
     7
 65
   257
 75
     1
175
     1
 42
1.0
 92
        0
 66
   257
 43
1.0
 76
     1
 77
     6
 78
     2
 67
     7
 79
     5
170
     0
171
     0
290
     0
174
     0
 93
        1
 44
0.0
173
     0
291
     0
 45
0.0
1001
ACAD
1000
AcDbSavedByObjectVersion
1070
     0
  0
VISUALSTYLE
  5
2E
102
{ACAD_XDICTIONARY
360
FF1
102
}
102
{ACAD_REACTORS
330
29
102
}
330
29
100
AcDbVisualStyle
  2
Basic
 70
     7
 71
     1
 72
     0
 73
     1
 90
        0
 40
-0.6
 41
-30.0
 62
     5
 63
     7
421
 16777215
 74
     0
 91
        4
 64
     7
 65
   257
 75
     1
175
     1
 42
1.0
 92
        8
 66
     7
 43
1.0
 76
     1
 77
     6
 78
     2
 67
     7
 79
     5
170
     0
171
     0
290
     0
174
     0
 93
        1
 44
0.0
173
     0
291
     1
 45
0.0
1001
ACAD
1000
AcDbSavedByObjectVersion
1070
     0
  0
VISUALSTYLE
  5
35
102
{ACAD_XDICTIONARY
360
FFF
102
}
102
{ACAD_REACTORS
330
29
102
}
330
29
100
AcDbVisualStyle
  2
Brighten
 70
    12
 71
     2
 72
     2
 73
     0
 90
        0
 40
-0.6
 41
-30.0
 62
     5
 63
     7
421
 16777215
 74
     1
 91
        4
 64
     7
 65
   257
 75
     1
175
     1
 42
1.0
 92
        8
 66
     7
 43
1.0
 76
     1
 77
     6
 78
     2
 67
     7
 79
     5
170
     0
171
     0
290
     0
174
     0
 93
        1
 44
50.0
173
     0
291
     1
 45
0.0
1001
ACAD
1000
AcDbSavedByObjectVersion
1070
     0
  0
VISUALSTYLE
  5
39
102
{ACAD_XDICTIONARY
360
1007
102
}
102
{ACAD_REACTORS
330
29
102
}
330
29
100
AcDbVisualStyle
  2
ColorChange
 70
    16
 71
     2
 72
     2
 73
     3
 90
        0
 40
-0.6
 41
-30.0
 62
     5
 63
     8
421
  8421504
 74
     1
 91
        4
 64
     7
 65
   257
 75
     1
175
     1
 42
1.0
 92
        8
 66
     8
424
  8421504
 43
1.0
 76
     1
 77
     6
 78
     2
 67
     7
 79
     5
170
     0
171
     0
290
     0
174
     0
 93
        1
 44
0.0
173
     0
291
     1
 45
0.0
1001
ACAD
1000
AcDbSavedByObjectVersion
1070
     0
  0
VISUALSTYLE
  5
32
102
{ACAD_XDICTIONARY
360
FF9
102
}
102
{ACAD_REACTORS
330
29
102
}
330
29
100
AcDbVisualStyle
  2
Conceptual
 70
     9
 71
     3
 72
     2
 73
     0
 90
        0
 40
-0.6
 41
-30.0
 62
     5
 63
     7
421
 16777215
 74
     2
 91
        2
 64
     7
 65
   257
 75
     1
175
     1
 42
179.0
 92
        8
 66
     7
 43
1.0
 76
     1
 77
     6
 78
     2
 67
     7
 79
     3
170
     0
171
     0
290
     0
174
     0
 93
        1
 44
0.0
173
     0
291
     0
 45
0.0
1001
ACAD
1000
AcDbSavedByObjectVersion
1070
     0
  0
VISUALSTYLE
  5
34
102
{ACAD_XDICTIONARY
360
FFD
102
}
102
{ACAD_REACTORS
330
29
102
}
330
29
100
AcDbVisualStyle
  2
Dim
 70
    11
 71
     2
 72
     2
 73
     0
 90
        0
 40
-0.6
 41
-30.0
 62
     5
 63
     7
421
 16777215
 74
     1
 91
        4
 64
     7
 65
   257
 75
     1
175
     1
 42
1.0
 92
        8
 66
     7
 43
1.0
 76
     1
 77
     6
 78
     2
 67
     7
 79
     5
170
     0
171
     0
290
     0
174
     0
 93
        1
 44
-50.0
173
     0
291
     1
 45
0.0
1001
ACAD
1000
AcDbSavedByObjectVersion
1070
     0
  0
VISUALSTYLE
  5
3C
102
{ACAD_XDICTIONARY
360
100D
102
}
102
{ACAD_REACTORS
330
29
102
}
330
29
100
AcDbVisualStyle
  2
EdgeColorOff
 70
    22
 71
     2
 72
     2
 73
     0
 90
        0
 40
-0.6
 41
-30.0
 62
     5
 63
     7
421
 16777215
 74
     1
 91
        4
 64
     7
 65
   257
 75
     1
175
     1
 42
1.0
 92
        8
 66
     7
 43
1.0
 76
     1
 77
     6
 78
     2
 67
     7
 79
     5
170
     0
171
     0
290
     0
174
     0
 93
        1
 44
0.0
173
     0
291
     1
 45
0.0
1001
ACAD
1000
AcDbSavedByObjectVersion
1070
     0
  0
VISUALSTYLE
  5
38
102
{ACAD_XDICTIONARY
360
1005
102
}
102
{ACAD_REACTORS
330
29
102
}
330
29
100
AcDbVisualStyle
  2
Facepattern
 70
    15
 71
     2
 72
     2
 73
     0
 90
        0
 40
-0.6
 41
-30.0
 62
     5
 63
     7
421
 16777215
 74
     1
 91
        4
 64
     7
 65
   257
 75
     1
175
     1
 42
1.0
 92
        8
 66
     7
 43
1.0
 76
     1
 77
     6
 78
     2
 67
     7
 79
     5
170
     0
171
     0
290
     0
174
     0
 93
        1
 44
0.0
173
     0
291
     1
 45
0.0
1001
ACAD
1000
AcDbSavedByObjectVersion
1070
     0
  0
VISUALSTYLE
  5
2A
102
{ACAD_XDICTIONARY
360
FE9
102
}
102
{ACAD_REACTORS
330
29
102
}
330
29
100
AcDbVisualStyle
  2
Flat
 70
     0
 71
     2
 72
     1
 73
     1
 90
        2
 40
-0.6
 41
30.0
 62
     5
 63
     7
421
 16777215
 74
     0
 91
        4
 64
     7
 65
   257
 75
     1
175
     1
 42
1.0
 92
        8
 66
     7
 43
1.0
 76
     1
 77
     6
 78
     2
 67
     7
 79
     5
170
     0
171
     0
290
     0
174
     0
 93
       13
 44
0.0
173
     0
291
     1
 45
0.0
1001
ACAD
1000
AcDbSavedByObjectVersion
1070
     0
  0
VISUALSTYLE
  5
2B
102
{ACAD_XDICTIONARY
360
FEB
102
}
102
{ACAD_REACTORS
330
29
102
}
330
29
100
AcDbVisualStyle
  2
FlatWithEdges
 70
     1
 71
     2
 72
     1
 73
     1
 90
        2
 40
-0.6
 41
30.0
 62
     5
 63
     7
421
 16777215
 74
     1
 91
        4
 64
     7
 65
   257
 75
     1
175
     1
 42
1.0
 92
        0
 66
   257
 43
1.0
 76
     1
 77
     6
 78
     2
 67
     7
 79
     5
170
     0
171
     0
290
     0
174
     0
 93
       13
 44
0.0
173
     0
291
     1
 45
0.0
1001
ACAD
1000
AcDbSavedByObjectVersion
1070
     0
  0
VISUALSTYLE
  5
2C
102
{ACAD_XDICTIONARY
360
FED
102
}
102
{ACAD_REACTORS
330
29
102
}
330
29
100
AcDbVisualStyle
  2
Gouraud
 70
     2
 71
     2
 72
     2
 73
     1
 90
        2
 40
-0.6
 41
30.0
 62
     5
 63
     7
421
 16777215
 74
     0
 91
        4
 64
     7
 65
   257
 75
     1
175
     1
 42
1.0
 92
        0
 66
     7
 43
1.0
 76
     1
 77
     6
 78
     2
 67
     7
 79
     5
170
     0
171
     0
290
     0
174
     0
 93
       13
 44
0.0
173
     0
291
     1
 45
0.0
1001
ACAD
1000
AcDbSavedByObjectVersion
1070
     0
  0
VISUALSTYLE
  5
2D
102
{ACAD_XDICTIONARY
360
FEF
102
}
102
{ACAD_REACTORS
330
29
102
}
330
29
100
AcDbVisualStyle
  2
GouraudWithEdges
 70
     3
 71
     2
 72
     2
 73
     1
 90
        2
 40
-0.6
 41
30.0
 62
     5
 63
     7
421
 16777215
 74
     1
 91
        4
 64
     7
 65
   257
 75
     1
175
     1
 42
1.0
 92
        0
 66
   257
 43
1.0
 76
     1
 77
     6
 78
     2
 67
     7
 79
     5
170
     0
171
     0
290
     0
174
     0
 93
       13
 44
0.0
173
     0
291
     1
 45
0.0
1001
ACAD
1000
AcDbSavedByObjectVersion
1070
     0
  0
VISUALSTYLE
  5
3A
102
{ACAD_XDICTIONARY
360
1009
102
}
102
{ACAD_REACTORS
330
29
102
}
330
29
100
AcDbVisualStyle
  2
JitterOff
 70
    20
 71
     2
 72
     2
 73
     0
 90
        0
 40
-0.6
 41
-30.0
 62
     5
 63
     7
421
 16777215
 74
     1
 91
        4
 64
     7
 65
   257
 75
     1
175
     1
 42
1.0
 92
       10
 66
     7
 43
1.0
 76
     1
 77
     6
 78
     2
 67
     7
 79
     5
170
     0
171
     0
290
     0
174
     0
 93
        1
 44
0.0
173
     0
291
     1
 45
0.0
1001
ACAD
1000
AcDbSavedByObjectVersion
1070
     0
  0
VISUALSTYLE
  5
37
102
{ACAD_XDICTIONARY
360
1003
102
}
102
{ACAD_REACTORS
330
29
102
}
330
29
100
AcDbVisualStyle
  2
Linepattern
 70
    14
 71
     2
 72
     2
 73
     0
 90
        0
 40
-0.6
 41
-30.0
 62
     5
 63
     7
421
 16777215
 74
     1
 91
        4
 64
     7
 65
   257
 75
     7
175
     7
 42
1.0
 92
        8
 66
     7
 43
1.0
 76
     1
 77
     6
 78
     2
 67
     7
 79
     5
170
     0
171
     0
290
     0
174
     0
 93
        1
 44
0.0
173
     0
291
     1
 45
0.0
1001
ACAD
1000
AcDbSavedByObjectVersion
1070
     0
  0
VISUALSTYLE
  5
3B
102
{ACAD_XDICTIONARY
360
100B
102
}
102
{ACAD_REACTORS
330
29
102
}
330
29
100
AcDbVisualStyle
  2
OverhangOff
 70
    21
 71
     2
 72
     2
 73
     0
 90
        0
 40
-0.6
 41
-30.0
 62
     5
 63
     7
421
 16777215
 74
     1
 91
        4
 64
     7
 65
   257
 75
     1
175
     1
 42
1.0
 92
        9
 66
     7
 43
1.0
 76
     1
 77
     6
 78
     2
 67
     7
 79
     5
170
     0
171
     0
290
     0
174
     0
 93
        1
 44
0.0
173
     0
291
     1
 45
0.0
1001
ACAD
1000
AcDbSavedByObjectVersion
1070
     0
  0
VISUALSTYLE
  5
33
102
{ACAD_XDICTIONARY
360
FFB
102
}
102
{ACAD_REACTORS
330
29
102
}
330
29
100
AcDbVisualStyle
  2
Realistic
 70
     8
 71
     2
 72
     2
 73
     0
 90
        0
 40
-0.6
 41
-30.0
 62
     5
 63
     7
421
 16777215
 74
     1
 91
        0
 64
     7
 65
   257
 75
     1
175
     1
 42
1.0
 92
        8
 66
     8
424
  7895160
 43
1.0
 76
     1
 77
     6
 78
     2
 67
     7
 79
     5
170
     0
171
     0
290
     0
174
     0
 93
       13
 44
0.0
173
     0
291
     0
 45
0.0
1001
ACAD
1000
AcDbSavedByObjectVersion
1070
     0
  0
VISUALSTYLE
  5
36
102
{ACAD_XDICTIONARY
360
1001
102
}
102
{ACAD_REACTORS
330
29
102
}
330
29
100
AcDbVisualStyle
  2
Thicken
 70
    13
 71
     2
 72
     2
 73
     0
 90
        0
 40
-0.6
 41
-30.0
 62
     5
 63
     7
421
 16777215
 74
     1
 91
        4
 64
     7
 65
   257
 75
     1
175
     1
 42
1.0
 92
       12
 66
     7
 43
1.0
 76
     1
 77
     6
 78
     2
 67
     7
 79
     5
170
     0
171
     0
290
     0
174
     0
 93
        1
 44
0.0
173
     0
291
     1
 45
0.0
1001
ACAD
1000
AcDbSavedByObjectVersion
1070
     0
  0
DICTIONARYVAR
  5
F68
102
{ACAD_REACTORS
330
F64
102
}
330
F64
100
DictionaryVariables
280
     0
  1
1:1
  0
DICTIONARYVAR
  5
F66
102
{ACAD_REACTORS
330
F64
102
}
330
F64
100
DictionaryVariables
280
     0
  1
STANDARD
  0
DICTIONARYVAR
  5
F65
102
{ACAD_REACTORS
330
F64
102
}
330
F64
100
DictionaryVariables
280
     0
  1
STANDARD
  0
DICTIONARYVAR
  5
F6A
102
{ACAD_REACTORS
330
F64
102
}
330
F64
100
DictionaryVariables
280
     0
  1
0
  0
DICTIONARYVAR
  5
F6B
102
{ACAD_REACTORS
330
F64
102
}
330
F64
100
DictionaryVariables
280
     0
  1
0
  0
DICTIONARYVAR
  5
F69
102
{ACAD_REACTORS
330
F64
102
}
330
F64
100
DictionaryVariables
280
     0
  1
2
  0
DICTIONARYVAR
  5
F67
102
{ACAD_REACTORS
330
F64
102
}
330
F64
100
DictionaryVariables
280
     0
  1
1
  0
DICTIONARYVAR
  5
F6C
102
{ACAD_REACTORS
330
F64
102
}
330
F64
100
DictionaryVariables
280
     0
  1
2
  0
DICTIONARY
  5
1A
330
19
100
AcDbDictionary
280
     1
281
     1
  3
ACAD_XREC_ROUNDTRIP
360
FE7
  3
BUMPTILE
360
1C
  3
DIFFUSETILE
360
1B
  3
OPACITYTILE
360
1F
  3
REFLECTIONTILE
360
1E
  3
REFRACTIONTILE
360
20
  3
SPECULARTILE
360
1D
  0
DICTIONARY
  5
12
330
11
100
AcDbDictionary
280
     1
281
     1
  3
ACAD_XREC_ROUNDTRIP
360
FE6
  3
BUMPTILE
360
14
  3
DIFFUSETILE
360
13
  3
OPACITYTILE
360
17
  3
REFLECTIONTILE
360
16
  3
REFRACTIONTILE
360
18
  3
SPECULARTILE
360
15
  0
DICTIONARY
  5
22
330
21
100
AcDbDictionary
280
     1
281
     1
  3
ACAD_XREC_ROUNDTRIP
360
FE8
  3
BUMPTILE
360
24
  3
DIFFUSETILE
360
23
  3
OPACITYTILE
360
27
  3
REFLECTIONTILE
360
26
  3
REFRACTIONTILE
360
28
  3
SPECULARTILE
360
25
  0
DICTIONARY
  5
F6D
330
70
100
AcDbDictionary
280
     1
281
     1
  3
ACAD_ROUNDTRIP_2008_TABLESTYLE_CELLSTYLEMAP
360
F6E
  3
ACAD_XREC_ROUNDTRIP
360
100F
  0
DICTIONARY
  5
FF3
330
2F
100
AcDbDictionary
280
     1
281
     1
  3
ACAD_XREC_ROUNDTRIP
360
FF4
  0
DICTIONARY
  5
FF7
330
31
100
AcDbDictionary
280
     1
281
     1
  3
ACAD_XREC_ROUNDTRIP
360
FF8
  0
DICTIONARY
  5
FF5
330
30
100
AcDbDictionary
280
     1
281
     1
  3
ACAD_XREC_ROUNDTRIP
360
FF6
  0
DICTIONARY
  5
FF1
330
2E
100
AcDbDictionary
280
     1
281
     1
  3
ACAD_XREC_ROUNDTRIP
360
FF2
  0
DICTIONARY
  5
FFF
330
35
100
AcDbDictionary
280
     1
281
     1
  3
ACAD_XREC_ROUNDTRIP
360
1000
  0
DICTIONARY
  5
1007
330
39
100
AcDbDictionary
280
     1
281
     1
  3
ACAD_XREC_ROUNDTRIP
360
1008
  0
DICTIONARY
  5
FF9
330
32
100
AcDbDictionary
280
     1
281
     1
  3
ACAD_XREC_ROUNDTRIP
360
FFA
  0
DICTIONARY
  5
FFD
330
34
100
AcDbDictionary
280
     1
281
     1
  3
ACAD_XREC_ROUNDTRIP
360
FFE
  0
DICTIONARY
  5
100D
330
3C
100
AcDbDictionary
280
     1
281
     1
  3
ACAD_XREC_ROUNDTRIP
360
100E
  0
DICTIONARY
  5
1005
330
38
100
AcDbDictionary
280
     1
281
     1
  3
ACAD_XREC_ROUNDTRIP
360
1006
  0
DICTIONARY
  5
FE9
330
2A
100
AcDbDictionary
280
     1
281
     1
  3
ACAD_XREC_ROUNDTRIP
360
FEA
  0
DICTIONARY
  5
FEB
330
2B
100
AcDbDictionary
280
     1
281
     1
  3
ACAD_XREC_ROUNDTRIP
360
FEC
  0
DICTIONARY
  5
FED
330
2C
100
AcDbDictionary
280
     1
281
     1
  3
ACAD_XREC_ROUNDTRIP
360
FEE
  0
DICTIONARY
  5
FEF
330
2D
100
AcDbDictionary
280
     1
281
     1
  3
ACAD_XREC_ROUNDTRIP
360
FF0
  0
DICTIONARY
  5
1009
330
3A
100
AcDbDictionary
280
     1
281
     1
  3
ACAD_XREC_ROUNDTRIP
360
100A
  0
DICTIONARY
  5
1003
330
37
100
AcDbDictionary
280
     1
281
     1
  3
ACAD_XREC_ROUNDTRIP
360
1004
  0
DICTIONARY
  5
100B
330
3B
100
AcDbDictionary
280
     1
281
     1
  3
ACAD_XREC_ROUNDTRIP
360
100C
  0
DICTIONARY
  5
FFB
330
33
100
AcDbDictionary
280
     1
281
     1
  3
ACAD_XREC_ROUNDTRIP
360
FFC
  0
DICTIONARY
  5
1001
330
36
100
AcDbDictionary
280
     1
281
     1
  3
ACAD_XREC_ROUNDTRIP
360
1002
  0
XRECORD
  5
FE7
102
{ACAD_REACTORS
330
1A
102
}
330
1A
100
AcDbXrecord
280
     1
102
MATERIAL
148
0.0
149
0.0
149
0.0
 93
        0
 94
      127
282
     0
 72
     0
 77
     0
171
     0
175
     0
179
     0
273
     0
  0
XRECORD
  5
1C
102
{ACAD_REACTORS
330
1A
102
}
330
1A
100
AcDbXrecord
280
     1
270
     1
271
     1
  0
XRECORD
  5
1B
102
{ACAD_REACTORS
330
1A
102
}
330
1A
100
AcDbXrecord
280
     1
270
     1
271
     1
  0
XRECORD
  5
1F
102
{ACAD_REACTORS
330
1A
102
}
330
1A
100
AcDbXrecord
280
     1
270
     1
271
     1
  0
XRECORD
  5
1E
102
{ACAD_REACTORS
330
1A
102
}
330
1A
100
AcDbXrecord
280
     1
270
     1
271
     1
  0
XRECORD
  5
20
102
{ACAD_REACTORS
330
1A
102
}
330
1A
100
AcDbXrecord
280
     1
270
     1
271
     1
  0
XRECORD
  5
1D
102
{ACAD_REACTORS
330
1A
102
}
330
1A
100
AcDbXrecord
280
     1
270
     1
271
     1
  0
XRECORD
  5
FE6
102
{ACAD_REACTORS
330
12
102
}
330
12
100
AcDbXrecord
280
     1
102
MATERIAL
148
0.0
149
0.0
149
0.0
 93
        0
 94
      127
282
     0
 72
     0
 77
     0
171
     0
175
     0
179
     0
273
     0
  0
XRECORD
  5
14
102
{ACAD_REACTORS
330
12
102
}
330
12
100
AcDbXrecord
280
     1
270
     1
271
     1
  0
XRECORD
  5
13
102
{ACAD_REACTORS
330
12
102
}
330
12
100
AcDbXrecord
280
     1
270
     1
271
     1
  0
XRECORD
  5
17
102
{ACAD_REACTORS
330
12
102
}
330
12
100
AcDbXrecord
280
     1
270
     1
271
     1
  0
XRECORD
  5
16
102
{ACAD_REACTORS
330
12
102
}
330
12
100
AcDbXrecord
280
     1
270
     1
271
     1
  0
XRECORD
  5
18
102
{ACAD_REACTORS
330
12
102
}
330
12
100
AcDbXrecord
280
     1
270
     1
271
     1
  0
XRECORD
  5
15
102
{ACAD_REACTORS
330
12
102
}
330
12
100
AcDbXrecord
280
     1
270
     1
271
     1
  0
XRECORD
  5
FE8
102
{ACAD_REACTORS
330
22
102
}
330
22
100
AcDbXrecord
280
     1
102
MATERIAL
148
0.0
149
0.0
149
0.0
 93
        0
 94
      127
282
     0
 72
     0
 77
     0
171
     0
175
     0
179
     0
273
     0
  0
XRECORD
  5
24
102
{ACAD_REACTORS
330
22
102
}
330
22
100
AcDbXrecord
280
     1
270
     1
271
     1
  0
XRECORD
  5
23
102
{ACAD_REACTORS
330
22
102
}
330
22
100
AcDbXrecord
280
     1
270
     1
271
     1
  0
XRECORD
  5
27
102
{ACAD_REACTORS
330
22
102
}
330
22
100
AcDbXrecord
280
     1
270
     1
271
     1
  0
XRECORD
  5
26
102
{ACAD_REACTORS
330
22
102
}
330
22
100
AcDbXrecord
280
     1
270
     1
271
     1
  0
XRECORD
  5
28
102
{ACAD_REACTORS
330
22
102
}
330
22
100
AcDbXrecord
280
     1
270
     1
271
     1
  0
XRECORD
  5
25
102
{ACAD_REACTORS
330
22
102
}
330
22
100
AcDbXrecord
280
     1
270
     1
271
     1
  0
CELLSTYLEMAP
  5
F6E
102
{ACAD_REACTORS
330
F6D
102
}
330
F6D
100
AcDbCellStyleMap
 90
        3
300
CELLSTYLE
  1
TABLEFORMAT_BEGIN
 90
        5
170
     1
 91
        0
 92
    32768
 62
   257
 93
        1
300
CONTENTFORMAT
  1
CONTENTFORMAT_BEGIN
 90
        0
 91
        0
 92
      512
 93
        0
300

 40
0.0
140
1.0
 94
        5
 62
     0
340
60
144
0.25
309
CONTENTFORMAT_END
171
     0
 94
        0
309
TABLEFORMAT_END
  1
CELLSTYLE_BEGIN
 90
        1
 91
        1
300
_TITLE
309
CELLSTYLE_END
300
CELLSTYLE
  1
TABLEFORMAT_BEGIN
 90
        5
170
     1
 91
        0
 92
        0
 62
   257
 93
        1
300
CONTENTFORMAT
  1
CONTENTFORMAT_BEGIN
 90
        0
 91
        0
 92
      512
 93
        0
300

 40
0.0
140
1.0
 94
        5
 62
     0
340
60
144
0.18
309
CONTENTFORMAT_END
171
     0
 94
        0
309
TABLEFORMAT_END
  1
CELLSTYLE_BEGIN
 90
        2
 91
        1
300
_HEADER
309
CELLSTYLE_END
300
CELLSTYLE
  1
TABLEFORMAT_BEGIN
 90
        5
170
     1
 91
        0
 92
        0
 62
   257
 93
        1
300
CONTENTFORMAT
  1
CONTENTFORMAT_BEGIN
 90
        0
 91
        0
 92
      512
 93
        0
300

 40
0.0
140
1.0
 94
        2
 62
     0
340
60
144
0.18
309
CONTENTFORMAT_END
171
     0
 94
        0
309
TABLEFORMAT_END
  1
CELLSTYLE_BEGIN
 90
        3
 91
        2
300
_DATA
309
CELLSTYLE_END
  0
XRECORD
  5
100F
102
{ACAD_REACTORS
330
F6D
102
}
330
F6D
100
AcDbXrecord
280
     1
102
ACAD_ROUNDTRIP_PRE2007_TABLESTYLE
 90
      512
 91
        0
  1

 92
      512
 93
        0
  2

 94
      512
 95
        0
  3

  0
XRECORD
  5
FF4
102
{ACAD_REACTORS
330
FF3
102
}
330
FF3
100
AcDbXrecord
280
     1
102
RTVSPropertyOp0
 70
     1
102
RTVSPropertyOp1
 70
     1
102
RTVSPropertyOp2
 70
     1
102
RTVSPropertyOp3
 70
     1
102
RTVSPropertyOp4
 70
     1
102
RTVSPropertyOp5
 70
     1
102
RTVSPropertyOp6
 70
     1
102
RTVSPropertyOp7
 70
     1
102
RTVSPropertyOp8
 70
     1
102
RTVSPropertyOp9
 70
     1
102
RTVSPropertyOp10
 70
     1
102
RTVSPropertyOp11
 70
     1
102
RTVSPropertyOp12
 70
     1
102
RTVSPropertyOp13
 70
     1
102
RTVSPropertyOp14
 70
     1
102
RTVSPropertyOp15
 70
     1
102
RTVSPropertyOp16
 70
     1
102
RTVSPropertyOp17
 70
     1
102
RTVSPropertyOp18
 70
     1
102
RTVSPropertyOp19
 70
     1
102
RTVSPropertyOp20
 70
     1
102
RTVSPropertyOp21
 70
     1
102
RTVSPropertyOp22
 70
     1
102
RTVSPropertyOp23
 70
     1
102
RTVSPropertyOp24
 70
     1
102
RTVSPropertyOp25
 70
     1
102
RTVSPropertyOp26
 70
     1
102
RTVSPropertyOp27
 70
     1
  0
XRECORD
  5
FF8
102
{ACAD_REACTORS
330
FF7
102
}
330
FF7
100
AcDbXrecord
280
     1
102
RTVSPropertyOp0
 70
     1
102
RTVSPropertyOp1
 70
     1
102
RTVSPropertyOp2
 70
     1
102
RTVSPropertyOp3
 70
     1
102
RTVSPropertyOp4
 70
     1
102
RTVSPropertyOp5
 70
     1
102
RTVSPropertyOp6
 70
     1
102
RTVSPropertyOp7
 70
     1
102
RTVSPropertyOp8
 70
     1
102
RTVSPropertyOp9
 70
     1
102
RTVSPropertyOp10
 70
     1
102
RTVSPropertyOp11
 70
     1
102
RTVSPropertyOp12
 70
     1
102
RTVSPropertyOp13
 70
     1
102
RTVSPropertyOp14
 70
     1
102
RTVSPropertyOp15
 70
     1
102
RTVSPropertyOp16
 70
     1
102
RTVSPropertyOp17
 70
     1
102
RTVSPropertyOp18
 70
     1
102
RTVSPropertyOp19
 70
     1
102
RTVSPropertyOp20
 70
     1
102
RTVSPropertyOp21
 70
     1
102
RTVSPropertyOp22
 70
     1
102
RTVSPropertyOp23
 70
     1
102
RTVSPropertyOp24
 70
     1
102
RTVSPropertyOp25
 70
     1
102
RTVSPropertyOp26
 70
     1
102
RTVSPropertyOp27
 70
     1
  0
XRECORD
  5
FF6
102
{ACAD_REACTORS
330
FF5
102
}
330
FF5
100
AcDbXrecord
280
     1
102
RTVSPropertyOp0
 70
     1
102
RTVSPropertyOp1
 70
     1
102
RTVSPropertyOp2
 70
     1
102
RTVSPropertyOp3
 70
     1
102
RTVSPropertyOp4
 70
     1
102
RTVSPropertyOp5
 70
     1
102
RTVSPropertyOp6
 70
     1
102
RTVSPropertyOp7
 70
     1
102
RTVSPropertyOp8
 70
     1
102
RTVSPropertyOp9
 70
     1
102
RTVSPropertyOp10
 70
     1
102
RTVSPropertyOp11
 70
     1
102
RTVSPropertyOp12
 70
     1
102
RTVSPropertyOp13
 70
     1
102
RTVSPropertyOp14
 70
     1
102
RTVSPropertyOp15
 70
     1
102
RTVSPropertyOp16
 70
     1
102
RTVSPropertyOp17
 70
     1
102
RTVSPropertyOp18
 70
     1
102
RTVSPropertyOp19
 70
     1
102
RTVSPropertyOp20
 70
     1
102
RTVSPropertyOp21
 70
     1
102
RTVSPropertyOp22
 70
     1
102
RTVSPropertyOp23
 70
     1
102
RTVSPropertyOp24
 70
     1
102
RTVSPropertyOp25
 70
     1
102
RTVSPropertyOp26
 70
     1
102
RTVSPropertyOp27
 70
     1
  0
XRECORD
  5
FF2
102
{ACAD_REACTORS
330
FF1
102
}
330
FF1
100
AcDbXrecord
280
     1
102
RTVSPropertyOp0
 70
     1
102
RTVSPropertyOp1
 70
     1
102
RTVSPropertyOp2
 70
     1
102
RTVSPropertyOp3
 70
     1
102
RTVSPropertyOp4
 70
     1
102
RTVSPropertyOp5
 70
     1
102
RTVSPropertyOp6
 70
     1
102
RTVSPropertyOp7
 70
     1
102
RTVSPropertyOp8
 70
     1
102
RTVSPropertyOp9
 70
     1
102
RTVSPropertyOp10
 70
     1
102
RTVSPropertyOp11
 70
     1
102
RTVSPropertyOp12
 70
     1
102
RTVSPropertyOp13
 70
     1
102
RTVSPropertyOp14
 70
     1
102
RTVSPropertyOp15
 70
     1
102
RTVSPropertyOp16
 70
     1
102
RTVSPropertyOp17
 70
     1
102
RTVSPropertyOp18
 70
     1
102
RTVSPropertyOp19
 70
     1
102
RTVSPropertyOp20
 70
     1
102
RTVSPropertyOp21
 70
     1
102
RTVSPropertyOp22
 70
     1
102
RTVSPropertyOp23
 70
     1
102
RTVSPropertyOp24
 70
     1
102
RTVSPropertyOp25
 70
     1
102
RTVSPropertyOp26
 70
     1
102
RTVSPropertyOp27
 70
     1
  0
XRECORD
  5
1000
102
{ACAD_REACTORS
330
FFF
102
}
330
FFF
100
AcDbXrecord
280
     1
102
RTVSPropertyOp0
 70
     1
102
RTVSPropertyOp1
 70
     1
102
RTVSPropertyOp2
 70
     1
102
RTVSPropertyOp3
 70
     1
102
RTVSPropertyOp4
 70
     1
102
RTVSPropertyOp5
 70
     1
102
RTVSPropertyOp6
 70
     1
102
RTVSPropertyOp7
 70
     1
102
RTVSPropertyOp8
 70
     1
102
RTVSPropertyOp9
 70
     1
102
RTVSPropertyOp10
 70
     1
102
RTVSPropertyOp11
 70
     1
102
RTVSPropertyOp12
 70
     1
102
RTVSPropertyOp13
 70
     1
102
RTVSPropertyOp14
 70
     1
102
RTVSPropertyOp15
 70
     1
102
RTVSPropertyOp16
 70
     1
102
RTVSPropertyOp17
 70
     1
102
RTVSPropertyOp18
 70
     1
102
RTVSPropertyOp19
 70
     1
102
RTVSPropertyOp20
 70
     1
102
RTVSPropertyOp21
 70
     1
102
RTVSPropertyOp22
 70
     1
102
RTVSPropertyOp23
 70
     1
102
RTVSPropertyOp24
 70
     1
102
RTVSPropertyOp25
 70
     1
102
RTVSPropertyOp26
 70
     1
102
RTVSPropertyOp27
 70
     1
  0
XRECORD
  5
1008
102
{ACAD_REACTORS
330
1007
102
}
330
1007
100
AcDbXrecord
280
     1
102
RTVSPropertyOp0
 70
     1
102
RTVSPropertyOp1
 70
     1
102
RTVSPropertyOp2
 70
     1
102
RTVSPropertyOp3
 70
     1
102
RTVSPropertyOp4
 70
     1
102
RTVSPropertyOp5
 70
     1
102
RTVSPropertyOp6
 70
     1
102
RTVSPropertyOp7
 70
     1
102
RTVSPropertyOp8
 70
     1
102
RTVSPropertyOp9
 70
     1
102
RTVSPropertyOp10
 70
     1
102
RTVSPropertyOp11
 70
     1
102
RTVSPropertyOp12
 70
     1
102
RTVSPropertyOp13
 70
     1
102
RTVSPropertyOp14
 70
     1
102
RTVSPropertyOp15
 70
     1
102
RTVSPropertyOp16
 70
     1
102
RTVSPropertyOp17
 70
     1
102
RTVSPropertyOp18
 70
     1
102
RTVSPropertyOp19
 70
     1
102
RTVSPropertyOp20
 70
     1
102
RTVSPropertyOp21
 70
     1
102
RTVSPropertyOp22
 70
     1
102
RTVSPropertyOp23
 70
     1
102
RTVSPropertyOp24
 70
     1
102
RTVSPropertyOp25
 70
     1
102
RTVSPropertyOp26
 70
     1
102
RTVSPropertyOp27
 70
     1
  0
XRECORD
  5
FFA
102
{ACAD_REACTORS
330
FF9
102
}
330
FF9
100
AcDbXrecord
280
     1
102
RTVSPropertyOp0
 70
     1
102
RTVSPropertyOp1
 70
     1
102
RTVSPropertyOp2
 70
     1
102
RTVSPropertyOp3
 70
     1
102
RTVSPropertyOp4
 70
     1
102
RTVSPropertyOp5
 70
     1
102
RTVSPropertyOp6
 70
     1
102
RTVSPropertyOp7
 70
     1
102
RTVSPropertyOp8
 70
     1
102
RTVSPropertyOp9
 70
     1
102
RTVSPropertyOp10
 70
     1
102
RTVSPropertyOp11
 70
     1
102
RTVSPropertyOp12
 70
     1
102
RTVSPropertyOp13
 70
     1
102
RTVSPropertyOp14
 70
     1
102
RTVSPropertyOp15
 70
     1
102
RTVSPropertyOp16
 70
     1
102
RTVSPropertyOp17
 70
     1
102
RTVSPropertyOp18
 70
     1
102
RTVSPropertyOp19
 70
     1
102
RTVSPropertyOp20
 70
     1
102
RTVSPropertyOp21
 70
     1
102
RTVSPropertyOp22
 70
     1
102
RTVSPropertyOp23
 70
     1
102
RTVSPropertyOp24
 70
     1
102
RTVSPropertyOp25
 70
     1
102
RTVSPropertyOp26
 70
     1
102
RTVSPropertyOp27
 70
     1
  0
XRECORD
  5
FFE
102
{ACAD_REACTORS
330
FFD
102
}
330
FFD
100
AcDbXrecord
280
     1
102
RTVSPropertyOp0
 70
     1
102
RTVSPropertyOp1
 70
     1
102
RTVSPropertyOp2
 70
     1
102
RTVSPropertyOp3
 70
     1
102
RTVSPropertyOp4
 70
     1
102
RTVSPropertyOp5
 70
     1
102
RTVSPropertyOp6
 70
     1
102
RTVSPropertyOp7
 70
     1
102
RTVSPropertyOp8
 70
     1
102
RTVSPropertyOp9
 70
     1
102
RTVSPropertyOp10
 70
     1
102
RTVSPropertyOp11
 70
     1
102
RTVSPropertyOp12
 70
     1
102
RTVSPropertyOp13
 70
     1
102
RTVSPropertyOp14
 70
     1
102
RTVSPropertyOp15
 70
     1
102
RTVSPropertyOp16
 70
     1
102
RTVSPropertyOp17
 70
     1
102
RTVSPropertyOp18
 70
     1
102
RTVSPropertyOp19
 70
     1
102
RTVSPropertyOp20
 70
     1
102
RTVSPropertyOp21
 70
     1
102
RTVSPropertyOp22
 70
     1
102
RTVSPropertyOp23
 70
     1
102
RTVSPropertyOp24
 70
     1
102
RTVSPropertyOp25
 70
     1
102
RTVSPropertyOp26
 70
     1
102
RTVSPropertyOp27
 70
     1
  0
XRECORD
  5
100E
102
{ACAD_REACTORS
330
100D
102
}
330
100D
100
AcDbXrecord
280
     1
102
RTVSPropertyOp0
 70
     0
102
RTVSPropertyOp1
 70
     0
102
RTVSPropertyOp2
 70
     0
102
RTVSPropertyOp3
 70
     0
102
RTVSPropertyOp4
 70
     0
102
RTVSPropertyOp5
 70
     0
102
RTVSPropertyOp6
 70
     0
102
RTVSPropertyOp7
 70
     0
102
RTVSPropertyOp8
 70
     0
102
RTVSPropertyOp9
 70
     0
102
RTVSPropertyOp10
 70
     0
102
RTVSPropertyOp11
 70
     0
102
RTVSPropertyOp12
 70
     0
102
RTVSPropertyOp13
 70
     0
102
RTVSPropertyOp14
 70
     2
102
RTVSPropertyOp15
 70
     0
102
RTVSPropertyOp16
 70
     0
102
RTVSPropertyOp17
 70
     0
102
RTVSPropertyOp18
 70
     0
102
RTVSPropertyOp19
 70
     0
102
RTVSPropertyOp20
 70
     0
102
RTVSPropertyOp21
 70
     0
102
RTVSPropertyOp22
 70
     0
102
RTVSPropertyOp23
 70
     0
102
RTVSPropertyOp24
 70
     0
102
RTVSPropertyOp25
 70
     0
102
RTVSPropertyOp26
 70
     0
102
RTVSPropertyOp27
 70
     0
  0
XRECORD
  5
1006
102
{ACAD_REACTORS
330
1005
102
}
330
1005
100
AcDbXrecord
280
     1
102
RTVSPropertyOp0
 70
     1
102
RTVSPropertyOp1
 70
     1
102
RTVSPropertyOp2
 70
     1
102
RTVSPropertyOp3
 70
     1
102
RTVSPropertyOp4
 70
     1
102
RTVSPropertyOp5
 70
     1
102
RTVSPropertyOp6
 70
     1
102
RTVSPropertyOp7
 70
     1
102
RTVSPropertyOp8
 70
     1
102
RTVSPropertyOp9
 70
     1
102
RTVSPropertyOp10
 70
     1
102
RTVSPropertyOp11
 70
     1
102
RTVSPropertyOp12
 70
     1
102
RTVSPropertyOp13
 70
     1
102
RTVSPropertyOp14
 70
     1
102
RTVSPropertyOp15
 70
     1
102
RTVSPropertyOp16
 70
     1
102
RTVSPropertyOp17
 70
     1
102
RTVSPropertyOp18
 70
     1
102
RTVSPropertyOp19
 70
     1
102
RTVSPropertyOp20
 70
     1
102
RTVSPropertyOp21
 70
     1
102
RTVSPropertyOp22
 70
     1
102
RTVSPropertyOp23
 70
     1
102
RTVSPropertyOp24
 70
     1
102
RTVSPropertyOp25
 70
     1
102
RTVSPropertyOp26
 70
     1
102
RTVSPropertyOp27
 70
     1
  0
XRECORD
  5
FEA
102
{ACAD_REACTORS
330
FE9
102
}
330
FE9
100
AcDbXrecord
280
     1
102
RTVSPropertyOp0
 70
     1
102
RTVSPropertyOp1
 70
     1
102
RTVSPropertyOp2
 70
     1
102
RTVSPropertyOp3
 70
     1
102
RTVSPropertyOp4
 70
     1
102
RTVSPropertyOp5
 70
     1
102
RTVSPropertyOp6
 70
     1
102
RTVSPropertyOp7
 70
     1
102
RTVSPropertyOp8
 70
     1
102
RTVSPropertyOp9
 70
     1
102
RTVSPropertyOp10
 70
     1
102
RTVSPropertyOp11
 70
     1
102
RTVSPropertyOp12
 70
     1
102
RTVSPropertyOp13
 70
     1
102
RTVSPropertyOp14
 70
     1
102
RTVSPropertyOp15
 70
     1
102
RTVSPropertyOp16
 70
     1
102
RTVSPropertyOp17
 70
     1
102
RTVSPropertyOp18
 70
     1
102
RTVSPropertyOp19
 70
     1
102
RTVSPropertyOp20
 70
     1
102
RTVSPropertyOp21
 70
     1
102
RTVSPropertyOp22
 70
     1
102
RTVSPropertyOp23
 70
     1
102
RTVSPropertyOp24
 70
     1
102
RTVSPropertyOp25
 70
     1
102
RTVSPropertyOp26
 70
     1
102
RTVSPropertyOp27
 70
     1
  0
XRECORD
  5
FEC
102
{ACAD_REACTORS
330
FEB
102
}
330
FEB
100
AcDbXrecord
280
     1
102
RTVSPropertyOp0
 70
     1
102
RTVSPropertyOp1
 70
     1
102
RTVSPropertyOp2
 70
     1
102
RTVSPropertyOp3
 70
     1
102
RTVSPropertyOp4
 70
     1
102
RTVSPropertyOp5
 70
     1
102
RTVSPropertyOp6
 70
     1
102
RTVSPropertyOp7
 70
     1
102
RTVSPropertyOp8
 70
     1
102
RTVSPropertyOp9
 70
     1
102
RTVSPropertyOp10
 70
     1
102
RTVSPropertyOp11
 70
     1
102
RTVSPropertyOp12
 70
     1
102
RTVSPropertyOp13
 70
     1
102
RTVSPropertyOp14
 70
     1
102
RTVSPropertyOp15
 70
     1
102
RTVSPropertyOp16
 70
     1
102
RTVSPropertyOp17
 70
     1
102
RTVSPropertyOp18
 70
     1
102
RTVSPropertyOp19
 70
     1
102
RTVSPropertyOp20
 70
     1
102
RTVSPropertyOp21
 70
     1
102
RTVSPropertyOp22
 70
     1
102
RTVSPropertyOp23
 70
     1
102
RTVSPropertyOp24
 70
     1
102
RTVSPropertyOp25
 70
     1
102
RTVSPropertyOp26
 70
     1
102
RTVSPropertyOp27
 70
     1
  0
XRECORD
  5
FEE
102
{ACAD_REACTORS
330
FED
102
}
330
FED
100
AcDbXrecord
280
     1
102
RTVSPropertyOp0
 70
     1
102
RTVSPropertyOp1
 70
     1
102
RTVSPropertyOp2
 70
     1
102
RTVSPropertyOp3
 70
     1
102
RTVSPropertyOp4
 70
     1
102
RTVSPropertyOp5
 70
     1
102
RTVSPropertyOp6
 70
     1
102
RTVSPropertyOp7
 70
     1
102
RTVSPropertyOp8
 70
     1
102
RTVSPropertyOp9
 70
     1
102
RTVSPropertyOp10
 70
     1
102
RTVSPropertyOp11
 70
     1
102
RTVSPropertyOp12
 70
     1
102
RTVSPropertyOp13
 70
     1
102
RTVSPropertyOp14
 70
     1
102
RTVSPropertyOp15
 70
     1
102
RTVSPropertyOp16
 70
     1
102
RTVSPropertyOp17
 70
     1
102
RTVSPropertyOp18
 70
     1
102
RTVSPropertyOp19
 70
     1
102
RTVSPropertyOp20
 70
     1
102
RTVSPropertyOp21
 70
     1
102
RTVSPropertyOp22
 70
     1
102
RTVSPropertyOp23
 70
     1
102
RTVSPropertyOp24
 70
     1
102
RTVSPropertyOp25
 70
     1
102
RTVSPropertyOp26
 70
     1
102
RTVSPropertyOp27
 70
     1
  0
XRECORD
  5
FF0
102
{ACAD_REACTORS
330
FEF
102
}
330
FEF
100
AcDbXrecord
280
     1
102
RTVSPropertyOp0
 70
     1
102
RTVSPropertyOp1
 70
     1
102
RTVSPropertyOp2
 70
     1
102
RTVSPropertyOp3
 70
     1
102
RTVSPropertyOp4
 70
     1
102
RTVSPropertyOp5
 70
     1
102
RTVSPropertyOp6
 70
     1
102
RTVSPropertyOp7
 70
     1
102
RTVSPropertyOp8
 70
     1
102
RTVSPropertyOp9
 70
     1
102
RTVSPropertyOp10
 70
     1
102
RTVSPropertyOp11
 70
     1
102
RTVSPropertyOp12
 70
     1
102
RTVSPropertyOp13
 70
     1
102
RTVSPropertyOp14
 70
     1
102
RTVSPropertyOp15
 70
     1
102
RTVSPropertyOp16
 70
     1
102
RTVSPropertyOp17
 70
     1
102
RTVSPropertyOp18
 70
     1
102
RTVSPropertyOp19
 70
     1
102
RTVSPropertyOp20
 70
     1
102
RTVSPropertyOp21
 70
     1
102
RTVSPropertyOp22
 70
     1
102
RTVSPropertyOp23
 70
     1
102
RTVSPropertyOp24
 70
     1
102
RTVSPropertyOp25
 70
     1
102
RTVSPropertyOp26
 70
     1
102
RTVSPropertyOp27
 70
     1
  0
XRECORD
  5
100A
102
{ACAD_REACTORS
330
1009
102
}
330
1009
100
AcDbXrecord
280
     1
102
RTVSPropertyOp0
 70
     0
102
RTVSPropertyOp1
 70
     0
102
RTVSPropertyOp2
 70
     0
102
RTVSPropertyOp3
 70
     0
102
RTVSPropertyOp4
 70
     0
102
RTVSPropertyOp5
 70
     0
102
RTVSPropertyOp6
 70
     0
102
RTVSPropertyOp7
 70
     0
102
RTVSPropertyOp8
 70
     0
102
RTVSPropertyOp9
 70
     0
102
RTVSPropertyOp10
 70
     0
102
RTVSPropertyOp11
 70
     0
102
RTVSPropertyOp12
 70
     0
102
RTVSPropertyOp13
 70
     0
102
RTVSPropertyOp14
 70
     2
102
RTVSPropertyOp15
 70
     0
102
RTVSPropertyOp16
 70
     0
102
RTVSPropertyOp17
 70
     0
102
RTVSPropertyOp18
 70
     0
102
RTVSPropertyOp19
 70
     0
102
RTVSPropertyOp20
 70
     0
102
RTVSPropertyOp21
 70
     0
102
RTVSPropertyOp22
 70
     0
102
RTVSPropertyOp23
 70
     0
102
RTVSPropertyOp24
 70
     0
102
RTVSPropertyOp25
 70
     0
102
RTVSPropertyOp26
 70
     0
102
RTVSPropertyOp27
 70
     0
  0
XRECORD
  5
1004
102
{ACAD_REACTORS
330
1003
102
}
330
1003
100
AcDbXrecord
280
     1
102
RTVSPropertyOp0
 70
     1
102
RTVSPropertyOp1
 70
     1
102
RTVSPropertyOp2
 70
     1
102
RTVSPropertyOp3
 70
     1
102
RTVSPropertyOp4
 70
     1
102
RTVSPropertyOp5
 70
     1
102
RTVSPropertyOp6
 70
     1
102
RTVSPropertyOp7
 70
     1
102
RTVSPropertyOp8
 70
     1
102
RTVSPropertyOp9
 70
     1
102
RTVSPropertyOp10
 70
     1
102
RTVSPropertyOp11
 70
     1
102
RTVSPropertyOp12
 70
     1
102
RTVSPropertyOp13
 70
     1
102
RTVSPropertyOp14
 70
     1
102
RTVSPropertyOp15
 70
     1
102
RTVSPropertyOp16
 70
     1
102
RTVSPropertyOp17
 70
     1
102
RTVSPropertyOp18
 70
     1
102
RTVSPropertyOp19
 70
     1
102
RTVSPropertyOp20
 70
     1
102
RTVSPropertyOp21
 70
     1
102
RTVSPropertyOp22
 70
     1
102
RTVSPropertyOp23
 70
     1
102
RTVSPropertyOp24
 70
     1
102
RTVSPropertyOp25
 70
     1
102
RTVSPropertyOp26
 70
     1
102
RTVSPropertyOp27
 70
     1
  0
XRECORD
  5
100C
102
{ACAD_REACTORS
330
100B
102
}
330
100B
100
AcDbXrecord
280
     1
102
RTVSPropertyOp0
 70
     0
102
RTVSPropertyOp1
 70
     0
102
RTVSPropertyOp2
 70
     0
102
RTVSPropertyOp3
 70
     0
102
RTVSPropertyOp4
 70
     0
102
RTVSPropertyOp5
 70
     0
102
RTVSPropertyOp6
 70
     0
102
RTVSPropertyOp7
 70
     0
102
RTVSPropertyOp8
 70
     0
102
RTVSPropertyOp9
 70
     0
102
RTVSPropertyOp10
 70
     0
102
RTVSPropertyOp11
 70
     0
102
RTVSPropertyOp12
 70
     0
102
RTVSPropertyOp13
 70
     0
102
RTVSPropertyOp14
 70
     2
102
RTVSPropertyOp15
 70
     0
102
RTVSPropertyOp16
 70
     0
102
RTVSPropertyOp17
 70
     0
102
RTVSPropertyOp18
 70
     0
102
RTVSPropertyOp19
 70
     0
102
RTVSPropertyOp20
 70
     0
102
RTVSPropertyOp21
 70
     0
102
RTVSPropertyOp22
 70
     0
102
RTVSPropertyOp23
 70
     0
102
RTVSPropertyOp24
 70
     0
102
RTVSPropertyOp25
 70
     0
102
RTVSPropertyOp26
 70
     0
102
RTVSPropertyOp27
 70
     0
  0
XRECORD
  5
FFC
102
{ACAD_REACTORS
330
FFB
102
}
330
FFB
100
AcDbXrecord
280
     1
102
RTVSPropertyOp0
 70
     1
102
RTVSPropertyOp1
 70
     1
102
RTVSPropertyOp2
 70
     1
102
RTVSPropertyOp3
 70
     1
102
RTVSPropertyOp4
 70
     1
102
RTVSPropertyOp5
 70
     1
102
RTVSPropertyOp6
 70
     1
102
RTVSPropertyOp7
 70
     1
102
RTVSPropertyOp8
 70
     1
102
RTVSPropertyOp9
 70
     1
102
RTVSPropertyOp10
 70
     1
102
RTVSPropertyOp11
 70
     1
102
RTVSPropertyOp12
 70
     1
102
RTVSPropertyOp13
 70
     1
102
RTVSPropertyOp14
 70
     1
102
RTVSPropertyOp15
 70
     1
102
RTVSPropertyOp16
 70
     1
102
RTVSPropertyOp17
 70
     1
102
RTVSPropertyOp18
 70
     1
102
RTVSPropertyOp19
 70
     1
102
RTVSPropertyOp20
 70
     1
102
RTVSPropertyOp21
 70
     1
102
RTVSPropertyOp22
 70
     1
102
RTVSPropertyOp23
 70
     1
102
RTVSPropertyOp24
 70
     1
102
RTVSPropertyOp25
 70
     1
102
RTVSPropertyOp26
 70
     1
102
RTVSPropertyOp27
 70
     1
  0
XRECORD
  5
1002
102
{ACAD_REACTORS
330
1001
102
}
330
1001
100
AcDbXrecord
280
     1
102
RTVSPropertyOp0
 70
     1
102
RTVSPropertyOp1
 70
     1
102
RTVSPropertyOp2
 70
     1
102
RTVSPropertyOp3
 70
     1
102
RTVSPropertyOp4
 70
     1
102
RTVSPropertyOp5
 70
     1
102
RTVSPropertyOp6
 70
     1
102
RTVSPropertyOp7
 70
     1
102
RTVSPropertyOp8
 70
     1
102
RTVSPropertyOp9
 70
     1
102
RTVSPropertyOp10
 70
     1
102
RTVSPropertyOp11
 70
     1
102
RTVSPropertyOp12
 70
     1
102
RTVSPropertyOp13
 70
     1
102
RTVSPropertyOp14
 70
     1
102
RTVSPropertyOp15
 70
     1
102
RTVSPropertyOp16
 70
     1
102
RTVSPropertyOp17
 70
     1
102
RTVSPropertyOp18
 70
     1
102
RTVSPropertyOp19
 70
     1
102
RTVSPropertyOp20
 70
     1
102
RTVSPropertyOp21
 70
     1
102
RTVSPropertyOp22
 70
     1
102
RTVSPropertyOp23
 70
     1
102
RTVSPropertyOp24
 70
     1
102
RTVSPropertyOp25
 70
     1
102
RTVSPropertyOp26
 70
     1
102
RTVSPropertyOp27
 70
     1
  0
ENDSEC
  0
EOF
